<?xml version="1.0" standalone="no"?>
<!DOCTYPE svg PUBLIC "-//W3C//DTD SVG 1.1//EN" "http://www.w3.org/Graphics/SVG/1.1/DTD/svg11.dtd" >
<svg xmlns="http://www.w3.org/2000/svg" xmlns:xlink="http://www.w3.org/1999/xlink" version="1.1">
<metadata>
Created by FontForge 20201107 at Sat Dec 22 22:38:17 2007
 By 
Yorlmar Campos/Impactolaser
</metadata>
<defs>
<font id="BarutaBlack" horiz-adv-x="512" >
  <font-face 
    font-family="RNS Baruta Black"
    font-weight="400"
    font-stretch="normal"
    units-per-em="2048"
    panose-1="2 15 9 2 2 2 6 2 3 4"
    ascent="2011"
    descent="-37"
    x-height="1365"
    cap-height="1375"
    bbox="-304 -514 2478 2014.03"
    underline-thickness="257"
    underline-position="-343"
    unicode-range="U+0020-F002"
  />
<missing-glyph horiz-adv-x="1024" 
d="M128 0v2014h768v-2014h-768zM256 128h512v1758h-512v-1758z" />
    <glyph glyph-name=".notdef" horiz-adv-x="1024" 
d="M128 0v2014h768v-2014h-768zM256 128h512v1758h-512v-1758z" />
    <glyph glyph-name=".null" horiz-adv-x="0" 
 />
    <glyph glyph-name="nonmarkingreturn" 
 />
    <glyph glyph-name="space" unicode=" " 
 />
    <glyph glyph-name="exclam" unicode="!" horiz-adv-x="614" 
d="M82 719v433q0 107 59 176q63 74 168 74q119 0 187 -98q37 -54 37 -154v-431q0 -108 -56 -175q-60 -72 -166 -72q-116 0 -184 84q-45 55 -45 163zM309 391q88 1 150.5 -62.5t62.5 -151.5q0 -89 -59 -151.5t-148 -62.5q-93 0 -156.5 63t-63.5 156q0 88 69 152q60 56 145 57
z" />
    <glyph glyph-name="quotedbl" unicode="&#x22;" horiz-adv-x="847" 
d="M55 930v300q0 75 42 123.5t116 48.5q75 0 117 -50q39 -47 39 -123v-297q0 -75 -39 -122q-42 -50 -115 -50q-160 0 -160 170zM478 930v300q0 75 42 123.5t116 48.5q75 0 117 -50q39 -47 39 -123v-297q0 -75 -39 -122q-42 -50 -115 -50q-160 0 -160 170z" />
    <glyph glyph-name="numbersign" unicode="#" horiz-adv-x="1519" 
d="M290 285q-43 2 -65 10q-99 35 -99 142q0 73 51 113q47 37 122 37h34l27 192q-45 3 -65 10q-99 34 -99 141q0 73 51 113q47 37 122 37h33l24 172q21 150 157 150q66 0 111.5 -44t45.5 -109q0 -21 -3 -42l-18 -127h193l24 172q21 150 157 150q66 0 111.5 -43.5t45.5 -109.5
q0 -21 -3 -42l-18 -127q45 -3 71 -13q93 -36 93 -135q0 -153 -170 -153h-37l-26 -192q45 -3 71 -13q92 -36 92 -136q0 -153 -170 -153h-36l-24 -171q-21 -151 -152 -151q-69 0 -115.5 42.5t-46.5 111.5q0 17 3 39l18 129h-193l-24 -171q-21 -151 -152 -151
q-69 0 -115.5 42.5t-46.5 111.5q0 17 3 39z" />
    <glyph glyph-name="dollar" unicode="$" horiz-adv-x="1184" 
d="M807 1371q245 -100 245 -273q0 -65 -34 -115q-51 -75 -141 -75q-77 0 -202 92q-50 37 -80 37q-55 0 -55 -55q0 -46 90 -77q127 -44 152 -54q84 -33 143 -72q181 -121 181 -353q0 -198 -131 -330q-49 -49 -150 -98q-12 -89 -53 -137q-67 -78 -171 -78q-105 0 -172 78
q-32 37 -50 124q-139 52 -199 110q-102 99 -102 216q0 87 69 149q56 51 129 51q79 0 149 -54l85 -66q39 -30 78 -30q56 0 56 59q0 60 -178 117q-356 114 -356 415q0 172 108 296q47 54 161 109q34 83 78 114q60 43 136 43q141 0 214 -143z" />
    <glyph glyph-name="percent" unicode="%" horiz-adv-x="1732" 
d="M389 1402q166 0 273 -128q83 -99 83 -236q0 -155 -120 -264q-101 -92 -238 -92q-163 0 -271 123q-89 102 -89 237q0 150 109 258q102 102 253 102zM421 279l583 992q62 105 166 105q76 0 124.5 -50.5t48.5 -127.5q0 -51 -45 -127l-556 -941q-29 -49 -38 -62
q-25 -36 -51 -52q-42 -26 -91 -26q-73 0 -123 50.5t-50 123.5q0 61 32 115zM1348 683q164 1 273 -128q83 -99 83 -236q0 -155 -120 -264q-101 -92 -238 -92q-163 0 -271 123q-89 102 -89 237q0 150 109 258q102 101 253 102z" />
    <glyph glyph-name="ampersand" unicode="&#x26;" horiz-adv-x="1185" 
d="M798 23q-126 -60 -233 -60q-198 0 -347 135q-163 147 -163 362q0 86 31 151q25 53 90 128q-84 115 -84 221q0 189 160 323q143 119 324 119q134 0 255 -69q88 -50 147 -129q67 -90 67 -181q0 -89 -65 -151.5t-155 -62.5q-119 0 -195 119q-22 35 -53 35q-59 0 -59 -60
q0 -39 64 -68q92 -41 92 -128q0 -51 -29 -98q-32 -50 -80 -61q-28 -6 -33 -7q-32 -13 -32 -61q0 -62 61 -62q56 0 132 117q31 47 38 57q22 29 47 47q64 45 135 45q84 0 156.5 -61t72.5 -144q0 -47 -37 -130q74 -85 74 -163q0 -91 -68 -157t-159 -66q-67 0 -154 60z" />
    <glyph glyph-name="quotesingle" unicode="'" horiz-adv-x="423" 
d="M55 930v300q0 75 42 123.5t116 48.5q75 0 117 -50q39 -47 39 -123v-297q0 -75 -39 -122q-42 -50 -115 -50q-160 0 -160 170z" />
    <glyph glyph-name="parenleft" unicode="(" horiz-adv-x="883" 
d="M607 1555q84 0 146 -68.5t62 -153.5q0 -59 -32 -115q-15 -26 -122 -117q-190 -161 -190 -424q0 -161 92 -300q43 -65 139 -146q51 -43 71 -68q43 -53 43 -134q0 -86 -62 -148q-72 -71 -156 -71q-92 0 -215 109q-160 142 -255 355q-87 194 -87 409q0 339 212 625
q184 248 354 247z" />
    <glyph glyph-name="parenright" unicode=")" horiz-adv-x="883" 
d="M276 1555q111 2 240 -118q152 -142 239 -343.5t87 -410.5q0 -334 -215 -626q-182 -247 -343 -247q-100 0 -171 87q-46 56 -46 132q0 107 114 202q111 93 160 181q71 128 71 279q0 100 -41 201q-51 126 -149 209l-74 62q-42 38 -58 74q-22 48 -22 96q0 87 61 153.5
t147 68.5z" />
    <glyph glyph-name="asterisk" unicode="*" horiz-adv-x="1184" 
d="M702 1215l68 22q22 7 45 7q45 0 74.5 -33t29.5 -79q0 -72 -85 -101l-65 -22l42 -57q26 -35 26 -73q0 -43 -34.5 -75t-77.5 -32q-52 0 -91 55l-40 56l-42 -58q-38 -52 -92 -52q-43 0 -77 31.5t-34 74.5q0 35 29 75l40 55l-67 22q-83 27 -83 103q0 44 29.5 77t72.5 33
q24 0 49 -8l66 -21v71q0 50 29 83t79 33q109 0 109 -118v-69z" />
    <glyph glyph-name="plus" unicode="+" horiz-adv-x="1184" 
d="M764 822h203q82 0 136.5 -47t54.5 -127q0 -169 -191 -169h-203v-186q0 -84 -43 -137q-47 -57 -130 -57q-84 0 -129 58q-41 53 -41 139v183h-200q-84 0 -137 44q-57 48 -57 130q0 83 59 128q53 41 139 41h196v189q0 98 58 147q52 44 117 44q168 0 168 -191v-189z" />
    <glyph glyph-name="comma" unicode="," horiz-adv-x="513" 
d="M132 2q-91 84 -91 176t62.5 154.5t154.5 62.5q106 0 169 -85q45 -61 45 -133q0 -50 -30 -112l-78 -160q-56 -114 -144 -114q-45 0 -80 29q-38 31 -38 75q0 35 30 107z" />
    <glyph glyph-name="hyphen" unicode="-" horiz-adv-x="554" 
d="M375 530h-193q-86 0 -131 44q-51 50 -51 118q0 78 55 121q49 38 130 38h190q77 0 128 -44t51 -120q0 -157 -179 -157z" />
    <glyph glyph-name="hyphen" unicode="&#x2010;" horiz-adv-x="554" 
d="M375 530h-193q-86 0 -131 44q-51 50 -51 118q0 78 55 121q49 38 130 38h190q77 0 128 -44t51 -120q0 -157 -179 -157z" />
    <glyph glyph-name="period" unicode="." horiz-adv-x="513" 
d="M257 391q89 1 152 -62t63 -152q0 -82 -57 -144q-65 -70 -155 -70q-92 0 -154.5 64t-62.5 156q0 86 64 146.5t150 61.5z" />
    <glyph glyph-name="slash" unicode="/" horiz-adv-x="1282" 
d="M92 198l700 1189q75 127 203 127q98 0 164 -66t66 -164q0 -55 -48 -136l-667 -1128q-50 -85 -90 -119q-57 -49 -137 -49q-93 0 -159.5 65t-66.5 158q0 64 35 123z" />
    <glyph glyph-name="zero" unicode="0" horiz-adv-x="1184" 
d="M1137 772v-178q0 -275 -139 -437q-166 -194 -406 -194q-147 0 -275 79q-168 104 -238 307q-31 91 -31 245v178q0 274 138 436q165 194 406 194q147 0 275 -79q170 -105 239 -306q31 -91 31 -245z" />
    <glyph glyph-name="one" unicode="1" horiz-adv-x="1184" 
d="M422 955h-75q-64 0 -107 30q-79 55 -79 167q0 104 69 160q64 53 170 53h224q249 0 249 -268v-855q0 -159 -117 -224q-51 -28 -107 -28q-107 0 -176 84q-51 62 -51 167v714z" />
    <glyph glyph-name="two" unicode="2" horiz-adv-x="1184" 
d="M818 425q96 -1 136 -17q129 -51 129 -194q0 -97 -67 -162q-54 -52 -176 -52h-518q-99 0 -158 53q-63 55 -63 154q0 92 83 181l406 436q40 43 40 72q0 58 -59 58q-30 0 -54 -31q-18 -29 -35 -58q-51 -82 -165 -82q-108 0 -180 86q-48 58 -48 138q0 152 155 277
q147 118 325 118q152 0 280 -82.5t189 -221.5q42 -96 42 -210q0 -140 -77 -259q-53 -81 -185 -204z" />
    <glyph glyph-name="three" unicode="3" horiz-adv-x="1184" 
d="M952 729q62 -77 85 -128q29 -65 29 -150q0 -173 -113 -306q-154 -182 -393 -182q-129 0 -244.5 62.5t-185.5 170.5q-53 82 -53 169q0 98 77 165q63 55 150 55q116 0 173 -89q17 -26 34 -53q22 -27 51 -27q59 0 59 63q0 40 -54 70q-71 40 -87 62q-26 34 -26 86
q0 65 41 104q11 11 80 43q39 18 39 55q0 60 -57 60q-30 0 -65 -51q-67 -96 -179 -96q-93 0 -157.5 63t-64.5 155q0 155 157 268q144 104 304 104q191 0 338 -128q152 -133 152 -322q0 -73 -26 -125l-38 -59z" />
    <glyph glyph-name="four" unicode="4" horiz-adv-x="1184" 
d="M1009 707q83 -19 120 -50q71 -60 71 -162q0 -107 -77 -172q-36 -30 -114 -40q1 -28 1 -41q0 -81 -36 -142q-65 -110 -189 -110q-73 0 -130.5 41t-81.5 110q-14 41 -14 142h-270q-138 0 -198 52q-66 58 -66 188v184q0 86 41 163l189 353q76 142 213 142h336q79 0 139 -62
q45 -47 58 -108q8 -37 8 -126v-362z" />
    <glyph glyph-name="five" unicode="5" horiz-adv-x="1184" 
d="M626 945q234 -49 321 -130q129 -121 129 -332q0 -224 -155 -374q-151 -146 -354 -146q-160 0 -303 99q-155 108 -155 249q0 109 84 171q59 44 128 44q68 0 156 -58q71 -47 90 -47q57 0 57 61q0 93 -178 108q-121 10 -135 13q-80 14 -122 52q-49 45 -49 128q0 27 3 47
l55 375q23 160 248 160h358q131 0 181 -38q76 -58 76 -167t-77 -170q-56 -45 -142 -45h-216z" />
    <glyph glyph-name="six" unicode="6" horiz-adv-x="1184" 
d="M748 1000q191 -78 268 -181q108 -144 108 -323q0 -158 -85 -289.5t-230 -196.5q-104 -47 -216 -47q-205 0 -359 140q-173 158 -173 392q0 123 62 255l239 510q67 142 205 142q103 0 174 -79q54 -60 54 -145q0 -44 -15 -87z" />
    <glyph glyph-name="seven" unicode="7" horiz-adv-x="1184" 
d="M561 941h-251q-85 0 -139 49q-72 65 -72 166q0 111 87 169q60 40 144 40h509q230 0 230 -235q0 -78 -22 -140l-291 -825q-62 -175 -216 -175q-102 0 -171 75q-59 64 -59 153q0 50 20 104z" />
    <glyph glyph-name="eight" unicode="8" horiz-adv-x="1184" 
d="M983 726q114 -145 114 -272q0 -191 -136 -332q-153 -159 -371 -159q-140 0 -263 75t-188 199q-52 100 -52 213q0 130 112 276q-92 118 -92 223q0 137 84 252q82 111 212 164q91 37 189 37q176 0 315 -113q171 -139 171 -338q0 -106 -95 -225z" />
    <glyph glyph-name="nine" unicode="9" horiz-adv-x="1184" 
d="M380 388q-164 85 -231 188q-89 138 -89 298q0 231 169 386q155 142 362 142q148 0 275 -76.5t196 -207.5q62 -117 62 -244q0 -156 -86 -293l-293 -466q-96 -152 -224 -152q-102 0 -170 84q-52 64 -52 140q0 59 81 201z" />
    <glyph glyph-name="colon" unicode=":" horiz-adv-x="513" 
d="M257 1014q89 1 152 -62t63 -152q0 -82 -57 -144q-65 -70 -155 -70q-92 0 -154.5 64t-62.5 156q0 86 64 146.5t150 61.5zM257 391q89 1 152 -62t63 -152q0 -82 -57 -144q-65 -70 -155 -70q-92 0 -154.5 64t-62.5 156q0 86 64 146.5t150 61.5z" />
    <glyph glyph-name="semicolon" unicode=";" horiz-adv-x="513" 
d="M258 1014q88 1 151 -62.5t63 -151.5q0 -82 -57 -144q-65 -70 -155 -70q-93 0 -155 63.5t-62 156.5q0 86 64 146.5t151 61.5zM132 2q-91 84 -91 176t62.5 154.5t154.5 62.5q106 0 169 -85q45 -61 45 -133q0 -50 -30 -112l-78 -160q-56 -114 -144 -114q-45 0 -80 29
q-38 31 -38 75q0 35 30 107z" />
    <glyph glyph-name="less" unicode="&#x3c;" horiz-adv-x="1185" 
d="M1036 1391v-445l-415 -253l415 -253v-442l-887 511v372z" />
    <glyph glyph-name="equal" unicode="=" horiz-adv-x="1184" 
d="M967 698h-746q-83 0 -137 44q-57 47 -57 129q0 83 58 128q53 41 139 41h743q81 0 135.5 -47t54.5 -127q0 -168 -190 -168zM967 261h-746q-83 0 -137 44q-57 47 -57 129q0 83 58 128q53 41 139 41h743q81 0 135.5 -47t54.5 -127q0 -168 -190 -168z" />
    <glyph glyph-name="greater" unicode="&#x3e;" horiz-adv-x="1184" 
d="M148 -2v445l415 253l-415 253v442l888 -511v-372z" />
    <glyph glyph-name="question" unicode="?" horiz-adv-x="981" 
d="M477 960q-26 0 -54 -32q-20 -27 -41 -54q-56 -59 -148 -59q-99 0 -165 73q-55 60 -55 143q0 154 158 270q138 101 307 101q133 0 249.5 -66.5t179.5 -181.5q60 -109 60 -247q0 -199 -129 -331t-327 -132q-149 0 -200 107q-22 44 -22 94q0 104 104 167q22 13 101 38
q38 12 38 54q0 55 -56 56zM495 395q92 0 156 -71q55 -61 55 -143q0 -90 -62.5 -152.5t-152.5 -62.5t-152 63t-62 153q0 93 71 158q60 55 147 55z" />
    <glyph glyph-name="at" unicode="@" horiz-adv-x="1471" 
d="M846 432q-51 -44 -135 -44q-123 0 -204.5 88t-81.5 212q0 122 81.5 207.5t203.5 85.5q81 0 134 -43q43 33 101 33q122 0 122 -105v-203q0 -54 32 -54q50 0 73 86q15 57 15 125q0 128 -75 214q-119 137 -335 137q-210 0 -349.5 -139t-139.5 -349q0 -204 138 -346t341 -142
q239 0 475 110q58 27 88 27q40 0 65 -38q21 -32 21 -75q0 -79 -105 -130q-255 -123 -548 -123q-205 0 -378.5 104.5t-264.5 286.5q-79 158 -79 327q0 199 108 373.5t286 264.5q153 77 338 77q301 0 483 -195q147 -158 147 -367q0 -135 -64 -252q-111 -202 -335 -202
q-99 0 -158 49z" />
    <glyph glyph-name="A" unicode="A" horiz-adv-x="1289" 
d="M435 177q-32 -76 -66 -113q-68 -74 -165 -74q-119 0 -185 96q-39 57 -39 128q0 59 28 119l427 909q62 133 207 133q147 0 211 -137l431 -916q26 -55 26 -109q0 -80 -52 -142q-68 -81 -174 -81q-87 0 -145 54q-43 40 -86 133h-418z" />
    <glyph glyph-name="B" unicode="B" horiz-adv-x="1213" 
d="M1023 730q80 -78 109 -140q41 -88 41 -185q0 -182 -138 -305q-74 -66 -151 -86q-56 -14 -176 -14h-359q-129 0 -192 67q-45 48 -55 105q-5 27 -5 123l-1 840q-2 124 100 191q48 32 135 38q19 2 142 1h63q164 0 236 -17q162 -39 246 -171q69 -109 69 -236q0 -99 -64 -211z
" />
    <glyph glyph-name="C" unicode="C" horiz-adv-x="1415" 
d="M765 1402q249 1 458 -167q164 -132 164 -273q0 -120 -100 -186q-57 -38 -124 -38q-55 0 -105 26q-21 11 -104 101q-77 84 -193 84q-112 0 -187.5 -77.5t-75.5 -189.5q0 -111 75.5 -188.5t186.5 -77.5q92 0 171 62q49 47 97 94q52 45 132 45q92 0 159.5 -64.5t67.5 -156.5
q0 -125 -147 -253q-206 -180 -476 -180q-167 0 -315 71q-187 90 -297.5 264.5t-110.5 381.5q0 310 230 528q203 192 494 194z" />
    <glyph glyph-name="D" unicode="D" horiz-adv-x="1393" 
d="M356 1365h275q301 0 495 -172q227 -201 227 -509q0 -151 -66 -290q-114 -240 -356 -340q-131 -54 -351 -54h-191q-137 0 -191 36q-70 47 -90 118q-12 43 -12 154v750q0 97 3 119q8 63 46 107q69 81 211 81z" />
    <glyph glyph-name="E" unicode="E" horiz-adv-x="1052" 
d="M547 422h205q127 0 189 -52q73 -62 73 -160q0 -100 -73 -162q-57 -48 -187 -48h-351q-124 0 -170 19q-90 37 -119 121q-18 54 -18 177v742q0 93 6 125q11 65 53 110q48 51 122 65q35 6 142 6h269q110 0 128 -2q72 -7 118 -42q82 -62 82 -162q0 -108 -72 -165
q-64 -51 -175 -51h-222v-93h177q78 0 129 -41q54 -44 54 -121q0 -163 -199 -163h-161v-103z" />
    <glyph glyph-name="F" unicode="F" horiz-adv-x="1042" 
d="M546 524v-217q0 -149 -37 -212q-62 -105 -190 -105q-90 0 -150 58.5t-70 148.5q-3 28 -3 112v787q0 103 28 154q43 78 126 101q49 14 169 14h271q168 0 227 -34q98 -56 98 -172q0 -101 -73 -166q-57 -50 -169 -50h-227v-94h139q99 0 145 -26q75 -42 75 -135
q0 -164 -200 -164h-159z" />
    <glyph glyph-name="G" unicode="G" horiz-adv-x="1369" 
d="M916 467h-65q-125 0 -170 80q-22 38 -22 84q0 82 64 128q48 35 154 35q169 0 196 -2q130 -9 180 -51q76 -64 76 -217q0 -117 -5 -204q-7 -126 -157 -229q-186 -128 -404 -128q-262 0 -462 166q-122 102 -191 248.5t-69 305.5q0 206 108 380.5t292 263.5q155 75 320 75
q208 0 384 -111q141 -89 141 -213q0 -94 -67 -160.5t-161 -66.5q-39 0 -162 61q-74 37 -142 37q-106 0 -181 -79.5t-75 -186.5q0 -111 76.5 -188.5t187.5 -77.5q71 0 154 50z" />
    <glyph glyph-name="H" unicode="H" horiz-adv-x="1369" 
d="M546 476v-196q0 -82 -2 -100q-7 -48 -35 -91q-65 -99 -186 -99q-122 0 -187 101q-40 62 -40 190v823q0 122 48 184q67 87 178 87q113 0 182 -88q32 -41 39 -92q3 -18 3 -102v-195h278v189q0 139 46 201q64 87 176 87q117 0 176 -81q52 -71 52 -191v-826q0 -118 -37 -179
q-65 -108 -191 -108q-113 0 -179 90q-43 58 -43 198v198h-278z" />
    <glyph glyph-name="I" unicode="I" horiz-adv-x="642" 
d="M546 1096v-847q0 -110 -57 -181q-61 -78 -169 -78q-99 0 -167 73q-57 61 -57 186v847q0 142 57 206q65 73 167 73t167 -72q59 -66 59 -207z" />
    <glyph glyph-name="J" unicode="J" horiz-adv-x="1170" 
d="M638 574v500q0 150 42 208q67 93 186 93q123 0 188 -100q28 -43 34 -96q1 -13 1 -105v-473q0 -146 -12 -208q-40 -208 -217 -332q-139 -98 -309 -98q-237 0 -396 173q-141 153 -141 396q0 161 66 238q61 71 159 71q108 0 169 -69.5t61 -178.5q0 -24 -1 -65v-14
q0 -98 85 -98q58 0 78 56q7 19 7 102z" />
    <glyph glyph-name="K" unicode="K" horiz-adv-x="1282" 
d="M546 903l254 368q72 104 186 104q93 0 161 -66t68 -158q0 -68 -36 -120l-229 -333l280 -355q42 -53 42 -124q0 -94 -66 -161.5t-160 -67.5q-103 0 -157 67l-343 428v-236q0 -101 -35 -157q-64 -102 -186 -102q-111 0 -172 75q-57 69 -57 183v875q0 108 58 178
q61 74 168 74q102 0 170 -74q38 -41 48 -83q6 -26 6 -97v-218z" />
    <glyph glyph-name="L" unicode="L" horiz-adv-x="994" 
d="M546 422h221q102 0 161 -42q86 -62 86 -168q0 -96 -70 -160q-56 -52 -167 -52h-429q-126 0 -191 71q-47 52 -58 133q-3 26 -3 149v770q0 109 57 178q61 74 167 74q112 0 175 -82q51 -66 51 -225v-646z" />
    <glyph glyph-name="M" unicode="M" horiz-adv-x="1702" 
d="M846 772l227 483q56 120 199 120q188 0 225 -210l157 -880q7 -39 7 -77q0 -92 -64.5 -155t-157.5 -63q-83 0 -145 46t-78 126l-50 256l-89 -242q-68 -186 -231 -186q-161 0 -229 184l-90 244l-37 -218q-16 -95 -71 -147q-66 -63 -154 -63q-121 0 -187 95q-41 59 -41 150
q0 27 5 55l154 875q16 92 72 148q60 62 150 62q73 0 134.5 -41.5t91.5 -108.5z" />
    <glyph glyph-name="N" unicode="N" horiz-adv-x="1404" 
d="M858 846v254q0 117 41 178q65 97 186 97q104 0 171 -81q53 -64 53 -179v-837q0 -140 -49 -203q-66 -85 -175 -85t-180 91l-359 458v-287q0 -119 -49 -180q-66 -82 -173 -82q-114 0 -180 88q-48 64 -48 192v863q0 109 63.5 175.5t172.5 66.5q94 0 167 -89z" />
    <glyph glyph-name="O" unicode="O" horiz-adv-x="1521" 
d="M759 1402q208 2 382 -108.5t264 -291.5q75 -150 75 -318q0 -189 -93 -354t-254 -263q-171 -104 -378 -104q-201 0 -375.5 108.5t-263.5 289.5q-75 152 -75 334q0 150 65 290q89 193 266 305q173 110 387 112z" />
    <glyph glyph-name="P" unicode="P" horiz-adv-x="1167" 
d="M546 383v-133q0 -111 -55 -182q-60 -78 -168 -78q-123 0 -188 103q-30 47 -36 103q-3 23 -3 112v797q0 129 62 192q67 68 183 68h190q181 0 263 -25q155 -47 250.5 -176t95.5 -291q0 -152 -87 -278q-147 -212 -429 -212h-78z" />
    <glyph glyph-name="Q" unicode="Q" horiz-adv-x="1520" 
d="M1416 389q108 -95 108 -198q0 -104 -80 -175q-60 -53 -142 -53q-90 0 -193 95q-181 -95 -347 -95q-274 0 -476 180q-245 218 -245 542q0 212 117 392t311 264q141 61 295 61q274 0 480 -180q244 -214 244 -533q0 -137 -72 -300z" />
    <glyph glyph-name="R" unicode="R" horiz-adv-x="1202" 
d="M995 526l106 -170q44 -71 44 -146q0 -95 -65.5 -157.5t-160.5 -62.5q-122 0 -185 104l-188 308v-185q0 -95 -62.5 -161t-157.5 -66q-116 0 -176 83q-54 73 -54 192v841q0 259 279 259h286q141 0 262 -81.5t177 -211.5q42 -98 42 -197q0 -185 -147 -349z" />
    <glyph glyph-name="S" unicode="S" horiz-adv-x="1134" 
d="M260 516q75 0 160 -66q106 -83 145 -83q58 0 58 60q0 33 -34 56q-18 12 -202 77q-301 106 -301 392q0 216 159 341q139 109 344 109q177 0 308 -84.5t131 -217.5q0 -80 -49.5 -133.5t-128.5 -53.5q-83 0 -184 79q-63 49 -95 49q-55 0 -55 -54q0 -51 136 -93
q188 -59 291 -144q137 -114 137 -320q0 -224 -154 -350q-143 -117 -372 -117t-379 122q-120 97 -120 227q0 87 59 145t146 59z" />
    <glyph glyph-name="T" unicode="T" horiz-adv-x="1124" 
d="M338 946h-119q-99 0 -164 54q-69 58 -69 155q0 58 32.5 111.5t84 76t244.5 22.5h454q167 0 216 -20q54 -22 87.5 -75.5t33.5 -112.5q0 -93 -74 -162q-53 -49 -173 -49h-103v-680q0 -111 -38 -172q-64 -102 -185 -102t-186 93q-41 58 -41 176v685z" />
    <glyph glyph-name="U" unicode="U" horiz-adv-x="1314" 
d="M532 1109v-537q0 -156 125 -156t125 150v544q0 75 4 97q8 42 43 84q68 84 174 84q107 0 176 -82q53 -63 53 -217v-482q0 -268 -142 -430q-177 -201 -433 -201q-157 0 -296 84q-177 107 -247 306q-32 91 -32 241v482q0 84 4 111q9 56 44 100q69 88 178 88q97 0 165 -71
q59 -61 59 -195z" />
    <glyph glyph-name="V" unicode="V" horiz-adv-x="1287" 
d="M642 702l233 534q61 139 209 139q94 0 159.5 -64t65.5 -157q0 -55 -24 -106l-423 -907q-70 -151 -221 -151q-147 0 -212 140l-420 903q-33 71 -33 125q0 75 50 134q70 83 180 83q151 0 219 -161z" />
    <glyph glyph-name="W" unicode="W" horiz-adv-x="1843" 
d="M579 848l122 358q58 169 218 169q163 0 224 -176l126 -361l151 382q61 155 220 155q96 0 161 -63.5t65 -159.5q0 -36 -26 -107l-324 -879q-65 -176 -218 -176q-159 0 -218 172l-153 448l-148 -446q-58 -174 -216 -174q-155 0 -214 156l-347 911q-25 66 -25 105
q0 79 52 138q66 75 175 75q155 0 231 -182z" />
    <glyph glyph-name="X" unicode="X" horiz-adv-x="1205" 
d="M322 704l-190 253q-90 120 -90 195q0 76 51 138q69 85 179 85q111 0 189 -102l146 -192l136 173q95 121 200 121q117 0 188 -97q42 -58 42 -125q0 -77 -73 -173l-209 -276l256 -341q49 -65 49 -149q0 -76 -45 -136q-66 -88 -176 -88q-111 0 -184 96l-184 242l-185 -240
q-76 -98 -183 -98q-93 0 -159.5 65.5t-66.5 158.5q0 85 52 153z" />
    <glyph glyph-name="Y" unicode="Y" horiz-adv-x="1114" 
d="M779 569v-302q0 -114 -36 -171q-67 -106 -191 -106q-120 0 -187 104q-37 58 -37 174v301l-306 450q-45 66 -45 138q0 75 50 136q67 82 174 82q125 0 197 -106l159 -233l167 239q70 100 191 100q92 0 158.5 -65.5t66.5 -157.5q0 -69 -43 -130z" />
    <glyph glyph-name="Z" unicode="Z" horiz-adv-x="1234" 
d="M267 0q-5 2 -77 16q-43 9 -65 26q-82 62 -82 170q0 71 43 132l422 603h-243q-96 0 -158 55q-66 58 -66 153q0 104 72 159q65 51 172 51h603q121 0 191 -43q87 -53 87 -166q0 -66 -64 -157l-405 -574h226q78 0 120 -13q35 -10 66 -33q84 -62 84 -168q0 -105 -77 -166
q-23 -20 -72 -46z" />
    <glyph glyph-name="bracketleft" unicode="[" horiz-adv-x="883" 
d="M502 254h126q144 0 189 -100q22 -49 22 -105q0 -125 -79 -177q-43 -28 -132 -28h-324q-123 0 -171 48t-48 171v1239q0 123 48 171t171 48h324q144 0 189 -101q22 -49 22 -104q0 -125 -79 -177q-42 -28 -132 -28h-126v-857z" />
    <glyph glyph-name="backslash" unicode="\" horiz-adv-x="1282" 
d="M771 20l-667 1128q-48 81 -48 139q0 95 67.5 161t162.5 66q128 0 203 -127l700 -1188q35 -59 35 -124q0 -54 -26 -102q-65 -120 -200 -120q-81 0 -137 48q-40 35 -90 119z" />
    <glyph glyph-name="bracketright" unicode="]" horiz-adv-x="883" 
d="M381 254v857h-126q-144 0 -189 101q-22 49 -22 104q0 124 79 177q41 28 132 28h324q123 0 171 -48t48 -171v-1239q0 -122 -47.5 -170.5t-171.5 -48.5h-324q-144 0 -189 101q-22 49 -22 104q0 124 79 177q42 28 132 28h126z" />
    <glyph glyph-name="asciicircum" unicode="^" horiz-adv-x="1024" 
d="M387 671h-388l266 706h494l266 -706h-387l-125 405z" />
    <glyph glyph-name="underscore" unicode="_" horiz-adv-x="1024" 
d="M837 -391h-646q-84 0 -137 44q-57 48 -57 130q0 83 58 128q53 41 139 41h643q81 0 135.5 -47t54.5 -127q0 -169 -190 -169z" />
    <glyph glyph-name="grave" unicode="`" horiz-adv-x="1024" 
d="M405 1899q73 1 163 -117t90 -178q0 -54 -46 -98t-101 -44q-73 0 -155 106q-98 126 -98 187q0 58 44.5 100.5t102.5 43.5z" />
    <glyph glyph-name="a" unicode="a" horiz-adv-x="1289" 
d="M435 177q-32 -76 -66 -113q-68 -74 -165 -74q-119 0 -185 96q-39 57 -39 128q0 59 28 119l427 909q62 133 207 133q147 0 211 -137l431 -916q26 -55 26 -109q0 -80 -52 -142q-68 -81 -174 -81q-87 0 -145 54q-43 40 -86 133h-418z" />
    <glyph glyph-name="b" unicode="b" horiz-adv-x="1213" 
d="M1023 730q80 -78 109 -140q41 -88 41 -185q0 -182 -138 -305q-74 -66 -151 -86q-56 -14 -176 -14h-359q-129 0 -192 67q-45 48 -55 105q-5 27 -5 123l-1 840q-2 124 100 191q48 32 135 38q19 2 142 1h63q164 0 236 -17q162 -39 246 -171q69 -109 69 -236q0 -99 -64 -211z
" />
    <glyph glyph-name="c" unicode="c" horiz-adv-x="1415" 
d="M765 1402q249 1 458 -167q164 -132 164 -273q0 -120 -100 -186q-57 -38 -124 -38q-55 0 -105 26q-21 11 -104 101q-77 84 -193 84q-112 0 -187.5 -77.5t-75.5 -189.5q0 -111 75.5 -188.5t186.5 -77.5q92 0 171 62q49 47 97 94q52 45 132 45q92 0 159.5 -64.5t67.5 -156.5
q0 -125 -147 -253q-206 -180 -476 -180q-167 0 -315 71q-187 90 -297.5 264.5t-110.5 381.5q0 310 230 528q203 192 494 194z" />
    <glyph glyph-name="d" unicode="d" horiz-adv-x="1393" 
d="M356 1365h275q301 0 495 -172q227 -201 227 -509q0 -151 -66 -290q-114 -240 -356 -340q-131 -54 -351 -54h-191q-137 0 -191 36q-70 47 -90 118q-12 43 -12 154v750q0 97 3 119q8 63 46 107q69 81 211 81z" />
    <glyph glyph-name="e" unicode="e" horiz-adv-x="1052" 
d="M547 422h205q127 0 189 -52q73 -62 73 -160q0 -100 -73 -162q-57 -48 -187 -48h-351q-124 0 -170 19q-90 37 -119 121q-18 54 -18 177v742q0 93 6 125q11 65 53 110q48 51 122 65q35 6 142 6h269q110 0 128 -2q72 -7 118 -42q82 -62 82 -162q0 -108 -72 -165
q-64 -51 -175 -51h-222v-93h177q78 0 129 -41q54 -44 54 -121q0 -163 -199 -163h-161v-103z" />
    <glyph glyph-name="f" unicode="f" horiz-adv-x="1042" 
d="M546 524v-217q0 -149 -37 -212q-62 -105 -190 -105q-90 0 -150 58.5t-70 148.5q-3 28 -3 112v787q0 103 28 154q43 78 126 101q49 14 169 14h271q168 0 227 -34q98 -56 98 -172q0 -101 -73 -166q-57 -50 -169 -50h-227v-94h139q99 0 145 -26q75 -42 75 -135
q0 -164 -200 -164h-159z" />
    <glyph glyph-name="g" unicode="g" horiz-adv-x="1369" 
d="M916 467h-65q-125 0 -170 80q-22 38 -22 84q0 82 64 128q48 35 154 35q169 0 196 -2q130 -9 180 -51q76 -64 76 -217q0 -117 -5 -204q-7 -126 -157 -229q-186 -128 -404 -128q-262 0 -462 166q-122 102 -191 248.5t-69 305.5q0 206 108 380.5t292 263.5q155 75 320 75
q208 0 384 -111q141 -89 141 -213q0 -94 -67 -160.5t-161 -66.5q-39 0 -162 61q-74 37 -142 37q-106 0 -181 -79.5t-75 -186.5q0 -111 76.5 -188.5t187.5 -77.5q71 0 154 50z" />
    <glyph glyph-name="h" unicode="h" horiz-adv-x="1369" 
d="M546 476v-196q0 -82 -2 -100q-7 -48 -35 -91q-65 -99 -186 -99q-122 0 -187 101q-40 62 -40 190v823q0 122 48 184q67 87 178 87q113 0 182 -88q32 -41 39 -92q3 -18 3 -102v-195h278v189q0 139 46 201q64 87 176 87q117 0 176 -81q52 -71 52 -191v-826q0 -118 -37 -179
q-65 -108 -191 -108q-113 0 -179 90q-43 58 -43 198v198h-278z" />
    <glyph glyph-name="i" unicode="i" horiz-adv-x="642" 
d="M546 1096v-847q0 -110 -57 -181q-61 -78 -169 -78q-99 0 -167 73q-57 61 -57 186v847q0 142 57 206q65 73 167 73t167 -72q59 -66 59 -207z" />
    <glyph glyph-name="j" unicode="j" horiz-adv-x="1170" 
d="M638 574v500q0 150 42 208q67 93 186 93q123 0 188 -100q28 -43 34 -96q1 -13 1 -105v-473q0 -146 -12 -208q-40 -208 -217 -332q-139 -98 -309 -98q-237 0 -396 173q-141 153 -141 396q0 161 66 238q61 71 159 71q108 0 169 -69.5t61 -178.5q0 -24 -1 -65v-14
q0 -98 85 -98q58 0 78 56q7 19 7 102z" />
    <glyph glyph-name="k" unicode="k" horiz-adv-x="1282" 
d="M546 903l254 368q72 104 186 104q93 0 161 -66t68 -158q0 -68 -36 -120l-229 -333l280 -355q42 -53 42 -124q0 -94 -66 -161.5t-160 -67.5q-103 0 -157 67l-343 428v-236q0 -101 -35 -157q-64 -102 -186 -102q-111 0 -172 75q-57 69 -57 183v875q0 108 58 178
q61 74 168 74q102 0 170 -74q38 -41 48 -83q6 -26 6 -97v-218z" />
    <glyph glyph-name="l" unicode="l" horiz-adv-x="994" 
d="M546 422h221q102 0 161 -42q86 -62 86 -168q0 -96 -70 -160q-56 -52 -167 -52h-429q-126 0 -191 71q-47 52 -58 133q-3 26 -3 149v770q0 109 57 178q61 74 167 74q112 0 175 -82q51 -66 51 -225v-646z" />
    <glyph glyph-name="m" unicode="m" horiz-adv-x="1702" 
d="M846 772l227 483q56 120 199 120q188 0 225 -210l157 -880q7 -39 7 -77q0 -92 -64.5 -155t-157.5 -63q-83 0 -145 46t-78 126l-50 256l-89 -242q-68 -186 -231 -186q-161 0 -229 184l-90 244l-37 -218q-16 -95 -71 -147q-66 -63 -154 -63q-121 0 -187 95q-41 59 -41 150
q0 27 5 55l154 875q16 92 72 148q60 62 150 62q73 0 134.5 -41.5t91.5 -108.5z" />
    <glyph glyph-name="n" unicode="n" horiz-adv-x="1404" 
d="M858 846v254q0 117 41 178q65 97 186 97q104 0 171 -81q53 -64 53 -179v-837q0 -140 -49 -203q-66 -85 -175 -85t-180 91l-359 458v-287q0 -119 -49 -180q-66 -82 -173 -82q-114 0 -180 88q-48 64 -48 192v863q0 109 63.5 175.5t172.5 66.5q94 0 167 -89z" />
    <glyph glyph-name="o" unicode="o" horiz-adv-x="1521" 
d="M759 1402q208 2 382 -108.5t264 -291.5q75 -150 75 -318q0 -189 -93 -354t-254 -263q-171 -104 -378 -104q-201 0 -375.5 108.5t-263.5 289.5q-75 152 -75 334q0 150 65 290q89 193 266 305q173 110 387 112z" />
    <glyph glyph-name="p" unicode="p" horiz-adv-x="1167" 
d="M546 383v-133q0 -111 -55 -182q-60 -78 -168 -78q-123 0 -188 103q-30 47 -36 103q-3 23 -3 112v797q0 129 62 192q67 68 183 68h190q181 0 263 -25q155 -47 250.5 -176t95.5 -291q0 -152 -87 -278q-147 -212 -429 -212h-78z" />
    <glyph glyph-name="q" unicode="q" horiz-adv-x="1520" 
d="M1416 389q108 -95 108 -198q0 -104 -80 -175q-60 -53 -142 -53q-90 0 -193 95q-181 -95 -347 -95q-274 0 -476 180q-245 218 -245 542q0 212 117 392t311 264q141 61 295 61q274 0 480 -180q244 -214 244 -533q0 -137 -72 -300z" />
    <glyph glyph-name="r" unicode="r" horiz-adv-x="1202" 
d="M995 526l106 -170q44 -71 44 -146q0 -95 -65.5 -157.5t-160.5 -62.5q-122 0 -185 104l-188 308v-185q0 -95 -62.5 -161t-157.5 -66q-116 0 -176 83q-54 73 -54 192v841q0 259 279 259h286q141 0 262 -81.5t177 -211.5q42 -98 42 -197q0 -185 -147 -349z" />
    <glyph glyph-name="s" unicode="s" horiz-adv-x="1134" 
d="M260 516q75 0 160 -66q106 -83 145 -83q58 0 58 60q0 33 -34 56q-18 12 -202 77q-301 106 -301 392q0 216 159 341q139 109 344 109q177 0 308 -84.5t131 -217.5q0 -80 -49.5 -133.5t-128.5 -53.5q-83 0 -184 79q-63 49 -95 49q-55 0 -55 -54q0 -51 136 -93
q188 -59 291 -144q137 -114 137 -320q0 -224 -154 -350q-143 -117 -372 -117t-379 122q-120 97 -120 227q0 87 59 145t146 59z" />
    <glyph glyph-name="t" unicode="t" horiz-adv-x="1124" 
d="M338 946h-119q-99 0 -164 54q-69 58 -69 155q0 58 32.5 111.5t84 76t244.5 22.5h454q167 0 216 -20q54 -22 87.5 -75.5t33.5 -112.5q0 -93 -74 -162q-53 -49 -173 -49h-103v-680q0 -111 -38 -172q-64 -102 -185 -102t-186 93q-41 58 -41 176v685z" />
    <glyph glyph-name="u" unicode="u" horiz-adv-x="1314" 
d="M532 1109v-537q0 -156 125 -156t125 150v544q0 75 4 97q8 42 43 84q68 84 174 84q107 0 176 -82q53 -63 53 -217v-482q0 -268 -142 -430q-177 -201 -433 -201q-157 0 -296 84q-177 107 -247 306q-32 91 -32 241v482q0 84 4 111q9 56 44 100q69 88 178 88q97 0 165 -71
q59 -61 59 -195z" />
    <glyph glyph-name="v" unicode="v" horiz-adv-x="1287" 
d="M642 702l233 534q61 139 209 139q94 0 159.5 -64t65.5 -157q0 -55 -24 -106l-423 -907q-70 -151 -221 -151q-147 0 -212 140l-420 903q-33 71 -33 125q0 75 50 134q70 83 180 83q151 0 219 -161z" />
    <glyph glyph-name="w" unicode="w" horiz-adv-x="1843" 
d="M579 848l122 358q58 169 218 169q163 0 224 -176l126 -361l151 382q61 155 220 155q96 0 161 -63.5t65 -159.5q0 -36 -26 -107l-324 -879q-65 -176 -218 -176q-159 0 -218 172l-153 448l-148 -446q-58 -174 -216 -174q-155 0 -214 156l-347 911q-25 66 -25 105
q0 79 52 138q66 75 175 75q155 0 231 -182z" />
    <glyph glyph-name="x" unicode="x" horiz-adv-x="1205" 
d="M322 704l-190 253q-90 120 -90 195q0 76 51 138q69 85 179 85q111 0 189 -102l146 -192l136 173q95 121 200 121q117 0 188 -97q42 -58 42 -125q0 -77 -73 -173l-209 -276l256 -341q49 -65 49 -149q0 -76 -45 -136q-66 -88 -176 -88q-111 0 -184 96l-184 242l-185 -240
q-76 -98 -183 -98q-93 0 -159.5 65.5t-66.5 158.5q0 85 52 153z" />
    <glyph glyph-name="y" unicode="y" horiz-adv-x="1114" 
d="M779 569v-302q0 -114 -36 -171q-67 -106 -191 -106q-120 0 -187 104q-37 58 -37 174v301l-306 450q-45 66 -45 138q0 75 50 136q67 82 174 82q125 0 197 -106l159 -233l167 239q70 100 191 100q92 0 158.5 -65.5t66.5 -157.5q0 -69 -43 -130z" />
    <glyph glyph-name="z" unicode="z" horiz-adv-x="1234" 
d="M267 0q-5 2 -77 16q-43 9 -65 26q-82 62 -82 170q0 71 43 132l422 603h-243q-96 0 -158 55q-66 58 -66 153q0 104 72 159q65 51 172 51h603q121 0 191 -43q87 -53 87 -166q0 -66 -64 -157l-405 -574h226q78 0 120 -13q35 -10 66 -33q84 -62 84 -168q0 -105 -77 -166
q-23 -20 -72 -46z" />
    <glyph glyph-name="braceleft" unicode="{" horiz-adv-x="1024" 
d="M533 683q75 -50 101 -111q23 -52 23 -150v-49q0 -66 11 -86q16 -28 74 -31q93 -4 127 -17q57 -20 87 -85q22 -50 22 -105q0 -124 -79 -177q-41 -28 -133 -28h-100q-166 0 -163 0q-97 5 -158 34q-125 60 -125 258v168q0 81 -12 112q-18 44 -79 74q-78 38 -101 75
q-28 45 -28 111q0 89 43 141q22 26 90 63q59 32 76 73q11 29 11 108v168q0 198 125 258q61 29 158 34q-3 0 163 0h100q145 0 191 -99q21 -47 21 -104q0 -129 -79 -179q-39 -25 -157 -30q-58 -3 -74 -32q-11 -19 -11 -85v-49q0 -98 -23 -150q-26 -61 -101 -110z" />
    <glyph glyph-name="bar" unicode="|" horiz-adv-x="1024" 
d="M282 -91v1203q0 107 59 176q63 74 168 74q119 0 187 -98q37 -54 37 -154v-1201q0 -108 -56 -175q-60 -72 -166 -72q-116 0 -184 84q-45 55 -45 163z" />
    <glyph glyph-name="braceright" unicode="}" horiz-adv-x="1024" 
d="M491 683q-75 49 -101 110q-23 52 -23 150v49q0 66 -11 85q-16 29 -74 32q-92 4 -127 17q-59 21 -87 85q-22 50 -22 107q0 124 79 175q43 28 133 28h100q165 0 163 0q99 -5 158 -34q125 -61 125 -258v-168q0 -79 11 -108q17 -41 76 -73q75 -40 98 -74q35 -52 35 -130
q0 -74 -31 -115q-26 -35 -98 -70q-61 -29 -79 -75q-12 -31 -12 -111v-168q0 -199 -125 -259q-61 -29 -158 -34q3 0 -163 0h-100q-145 0 -190 101q-22 49 -22 104q0 126 79 178q38 25 157 30q59 2 74 31q11 19 11 86v48q0 98 23 150q26 61 101 111z" />
    <glyph glyph-name="asciitilde" unicode="~" horiz-adv-x="1365" 
d="M398 1075l-211 180q44 114 86 178q98 148 245 148q50 0 225 -59q107 -36 127 -36q35 0 65 34q12 14 40 67l211 -179q-69 -173 -141 -247q-81 -83 -189 -83q-47 0 -224 61q-108 37 -131 37q-50 0 -103 -101z" />
    <glyph glyph-name="nonbreakingspace" unicode="&#xa0;" 
 />
    <glyph glyph-name="exclamdown" unicode="&#xa1;" horiz-adv-x="614" 
d="M82 210v432q0 111 58 175q68 75 169 75q119 0 187 -98q37 -54 37 -153v-431q0 -108 -56 -175q-60 -72 -166 -72q-115 0 -184 84q-45 55 -45 163zM309 1402q88 1 150.5 -62.5t62.5 -151.5t-59.5 -151t-147.5 -63q-93 0 -156.5 63t-63.5 156q0 88 69 152q60 56 145 57z" />
    <glyph glyph-name="cent" unicode="&#xa2;" horiz-adv-x="1184" 
d="M431 1196q23 53 37 73q59 84 178 84q140 0 213 -144q101 -37 168 -93q103 -86 103 -189q0 -72 -49 -126q-65 -71 -164 -71q-70 0 -136 59t-123 59q-68 0 -113 -53q-41 -50 -41 -120q0 -65 36 -112q46 -60 119 -60q47 0 119 59q62 51 141 51q84 0 145 -54q65 -57 65 -139
q0 -96 -92 -176q-72 -63 -180 -102q-8 -76 -37 -117q-56 -78 -168 -78q-138 0 -197 117q-17 34 -24 91q-95 41 -160 99q-192 170 -192 421q0 173 97 314q94 138 255 207z" />
    <glyph glyph-name="sterling" unicode="&#xa3;" horiz-adv-x="1184" 
d="M601 424h256q259 0 259 -211q0 -111 -79 -174q-49 -39 -147 -39h-475q-153 0 -212 45q-78 60 -78 170q0 54 32 176q10 40 28 120q-120 30 -120 140q0 105 100 144q-25 103 -25 158q0 196 170 333q144 116 325 116q114 0 223 -51q143 -67 219 -196q42 -72 42 -155
q0 -82 -53 -141q-70 -79 -173 -79q-90 0 -155 64q-17 17 -56 82q-14 23 -41 23q-57 0 -57 -54q0 -26 25 -100q80 -5 117 -28q59 -36 59 -116q0 -133 -165 -140z" />
    <glyph glyph-name="currency" unicode="&#xa4;" horiz-adv-x="1519" 
d="M270 924l-45 45q-63 63 -63 133q0 72 50.5 124t122.5 52q65 0 132 -67l44 -44q121 57 245 57q125 0 244 -57l44 44q64 64 132 64q72 0 124 -50.5t52 -122.5q0 -64 -67 -133l-44 -45q56 -117 56 -238q0 -125 -60 -245l46 -46q68 -68 68 -136q0 -73 -50.5 -123.5
t-122.5 -50.5q-70 0 -139 70l-46 47q-115 -54 -236 -54q-122 0 -237 55l-51 -50q-68 -67 -135 -67q-72 0 -123 50t-51 122q0 67 70 139l45 46q-58 121 -58 245q0 121 53 236z" />
    <glyph glyph-name="yen" unicode="&#xa5;" horiz-adv-x="1184" 
d="M814 462v-195q0 -114 -36 -171q-67 -106 -191 -106q-120 0 -187 104q-37 58 -37 174v194h-169q-182 0 -182 141q0 70 60 112q39 27 125 27h48l-188 277q-45 66 -45 138q0 75 50 136q67 82 174 82q125 0 197 -106l159 -233l167 239q70 100 191 100q92 0 158.5 -65.5
t66.5 -157.5q0 -70 -43 -131l-196 -279h58q179 0 179 -142q0 -138 -179 -138h-180z" />
    <glyph glyph-name="brokenbar" unicode="&#xa6;" horiz-adv-x="1024" 
d="M286 1365h451v-755h-451v755zM286 314h451v-655h-451v655z" />
    <glyph glyph-name="section" unicode="&#xa7;" horiz-adv-x="1184" 
d="M261 940q-70 89 -70 224q0 185 138 294q123 97 304 97q155 0 274 -70q113 -66 113 -188q0 -69 -42 -118q-45 -52 -113 -52q-75 0 -166 72q-53 42 -80 42q-48 0 -48 -47q0 -35 44 -56q38 -14 75 -27q105 -38 134 -51q74 -33 122 -75q123 -107 123 -276q0 -167 -118 -263
q68 -100 68 -224q0 -196 -130 -307q-123 -105 -323 -105q-213 0 -346 110q-105 87 -105 196q0 78 52 129t130 51q49 0 91 -24q14 -8 78.5 -59t95.5 -51q51 0 51 50t-131 95.5t-185 79.5q-87 55 -128 150q-31 69 -31 141q0 145 123 262z" />
    <glyph glyph-name="dieresis" unicode="&#xa8;" horiz-adv-x="1024" 
d="M275 1842q76 0 131 -60q47 -52 47 -121q0 -75 -53 -128t-128 -53t-128 53.5t-53 128.5q0 76 54 128t130 52zM753 1847q74 0 126.5 -54t52.5 -128q0 -76 -53 -129.5t-129 -53.5q-77 0 -130 53.5t-53 130.5q0 78 61 134q52 47 125 47z" />
    <glyph glyph-name="copyright" unicode="&#xa9;" horiz-adv-x="1543" 
d="M771 1406q322 3 543 -239q188 -206 188 -490q0 -191 -99 -358t-266 -263q-170 -97 -377 -97q-189 0 -357.5 98.5t-263.5 263.5q-98 169 -98 361q0 319 242 538q203 184 488 186zM771 1197q-222 2 -377 -171q-130 -146 -130 -344q0 -138 67.5 -256.5t186 -188t245.5 -69.5
q235 0 386 170q130 147 130 341q0 230 -168 385q-142 131 -340 133zM787 1095q148 1 273 -95q98 -75 98 -156q0 -55 -40 -93t-96 -38q-55 0 -126 73q-45 46 -111 46q-64 0 -107.5 -42t-43.5 -105q0 -62 44 -104t107 -42q66 0 142 76q37 37 93 37t97 -37t41 -92
q0 -73 -88 -146q-122 -102 -283 -102q-176 0 -301 116q-129 118 -129 293q0 176 138 301q121 109 292 110z" />
    <glyph glyph-name="ordfeminine" unicode="&#xaa;" horiz-adv-x="801" 
d="M490 866q-67 -56 -147 -56q-104 0 -184 78q-91 89 -91 219q0 121 81 208t201 87q81 0 138 -54q38 47 105 47q64 0 99 -37q18 -19 18 -70v-364q0 -107 -119 -107q-68 0 -101 49zM622 515h-443q-95 0 -95 105q0 113 102 113h429q102 0 102 -113q0 -105 -95 -105z" />
    <glyph glyph-name="guillemotleft" unicode="&#xab;" horiz-adv-x="983" 
d="M385 694l73 -114q26 -41 26 -90q0 -61 -42.5 -104t-103.5 -43q-82 0 -129 73l-124 191q-30 46 -30 88q0 43 28 85l134 199q44 66 118 66q60 0 106.5 -45.5t46.5 -105.5q0 -36 -22 -71zM828 694l74 -114q26 -40 26 -90q0 -61 -42.5 -104t-103.5 -43q-82 0 -129 73
l-124 191q-30 46 -30 88q0 43 28 85l133 199q44 66 119 66q60 0 106.5 -45.5t46.5 -105.5q0 -36 -22 -71z" />
    <glyph glyph-name="logicalnot" unicode="&#xac;" horiz-adv-x="1184" 
d="M598 0v229h-450v392h887v-621h-437z" />
    <glyph glyph-name="sfthyphen" unicode="&#xad;" horiz-adv-x="554" 
d="M375 530h-193q-86 0 -131 44q-51 50 -51 118q0 78 55 121q49 38 130 38h190q77 0 128 -44t51 -120q0 -157 -179 -157z" />
    <glyph glyph-name="registered" unicode="&#xae;" horiz-adv-x="1543" 
d="M771 1406q322 3 543 -239q188 -206 188 -490q0 -191 -99 -358t-266 -263q-170 -97 -377 -97q-189 0 -357.5 98.5t-263.5 263.5q-98 169 -98 361q0 319 242 538q203 184 488 186zM771 1197q-222 2 -377 -171q-130 -146 -130 -344q0 -138 67.5 -256.5t186 -188t245.5 -69.5
q235 0 386 170q130 147 130 341q0 230 -168 385q-142 131 -340 133zM1019 598l60 -94q27 -42 27 -85q0 -56 -40 -92t-97 -36q-74 0 -113 61l-103 163v-92q0 -57 -38.5 -94.5t-95.5 -37.5q-139 0 -139 159v475q0 150 169 150h168q127 0 213 -94q74 -81 74 -186t-85 -197z" />
    <glyph glyph-name="macron" unicode="&#xaf;" horiz-adv-x="1024" 
d="M0 1840h1024v-258h-1024v258z" />
    <glyph glyph-name="degree" unicode="&#xb0;" horiz-adv-x="765" 
d="M388 1413q146 0 248 -113q88 -97 88 -228q0 -152 -113 -254q-97 -88 -229 -88q-151 0 -253 113q-88 98 -88 231q0 148 113 251q96 88 234 88z" />
    <glyph glyph-name="plusminus" unicode="&#xb1;" horiz-adv-x="1184" 
d="M967 0h-746q-84 0 -137 43q-57 47 -57 130t58 128q53 41 139 41h743q81 0 135.5 -47t54.5 -127q0 -168 -190 -168zM764 1061h203q98 0 147 -58q44 -52 44 -117q0 -168 -191 -168h-203v-159q0 -84 -44 -137q-48 -57 -130 -57q-83 0 -128 59q-41 53 -41 139v155h-200
q-84 0 -137 44q-57 48 -57 130q0 83 59 128q53 41 139 41h196v162q0 81 47 135.5t127 54.5q82 0 127 -55q42 -51 42 -135v-162z" />
    <glyph glyph-name="twosuperior" unicode="&#xb2;" horiz-adv-x="786" 
d="M544 807q62 0 98 -22q59 -36 59 -107q0 -60 -43 -100q-34 -32 -111 -32h-322q-141 0 -141 127q0 57 53 111l252 259q23 24 23 39q0 31 -32 31q-19 0 -52 -51t-106 -51q-58 0 -101.5 39.5t-43.5 97.5q0 100 104 173q94 66 198 66q158 0 255 -120q66 -81 66 -189
q0 -83 -46 -152q-31 -47 -110 -119z" />
    <glyph glyph-name="threesuperior" unicode="&#xb3;" horiz-adv-x="786" 
d="M621 983q70 -84 70 -165q0 -104 -71 -184q-97 -110 -247 -110q-130 0 -226 89q-78 73 -78 154q0 58 43 96.5t102 38.5q74 0 110 -55q30 -46 50 -46q32 0 32 34q0 25 -33 39q-70 29 -70 90q0 39 20 59q13 12 57 32q22 10 22 29q0 32 -31 32q-17 0 -37 -29
q-42 -59 -114 -59q-58 0 -100 38t-42 96q0 96 100 164q90 61 190 61q118 0 210 -75q98 -80 98 -196q0 -43 -14 -71q-5 -10 -41 -62z" />
    <glyph glyph-name="acute" unicode="&#xb4;" horiz-adv-x="1024" 
d="M619 1893q52 0 98 -37q58 -47 54 -110q-4 -72 -136 -218q-61 -68 -128 -68q-47 0 -89 35q-55 45 -55 112q0 71 119 202q76 83 137 84z" />
    <glyph glyph-name="mu" unicode="&#xb5;" horiz-adv-x="1024" 
d="M25 -357v1340h376v-474q0 -94 6 -123q18 -88 115 -88q57 0 83 43q23 38 22 70l-3 95v477h376v-983h-376v89q-38 -104 -110 -104q-70 0 -113 97v-439h-376z" />
    <glyph glyph-name="mu" unicode="&#x3bc;" horiz-adv-x="1024" 
d="M25 -357v1340h376v-474q0 -94 6 -123q18 -88 115 -88q57 0 83 43q23 38 22 70l-3 95v477h376v-983h-376v89q-38 -104 -110 -104q-70 0 -113 97v-439h-376z" />
    <glyph glyph-name="paragraph" unicode="&#xb6;" horiz-adv-x="1229" 
d="M396 728h-62q-134 0 -204 75q-111 118 -111 325q0 220 141 339q83 70 253 70h550q177 0 177 -193v-1344q0 -75 -39 -122q-42 -50 -116 -50q-159 0 -159 170v1225h-116v-1223q0 -75 -39 -122q-42 -50 -115 -50q-76 0 -119 48q-41 45 -41 122v730z" />
    <glyph glyph-name="periodcentered" unicode="&#xb7;" horiz-adv-x="497" 
d="M252 950q107 0 181 -82q64 -70 64 -166q0 -111 -82 -185q-71 -64 -167 -64q-110 0 -184 82q-64 71 -64 169q0 107 82 182q70 64 170 64z" />
    <glyph glyph-name="cedilla" unicode="&#xb8;" horiz-adv-x="1024" 
d="M695 -249l-84 -107q-70 -89 -157 -89q-68 0 -123 44q-66 53 -66 130q0 70 74 160l77 94q76 93 157 93q68 0 126.5 -54t58.5 -122q0 -69 -63 -149z" />
    <glyph glyph-name="onesuperior" unicode="&#xb9;" horiz-adv-x="786" 
d="M284 1114h-42q-120 0 -120 120q0 131 152 131h140q158 0 158 -163v-508q0 -53 -24 -90q-41 -63 -118 -63q-67 0 -106.5 42.5t-39.5 110.5v420z" />
    <glyph glyph-name="ordmasculine" unicode="&#xba;" horiz-adv-x="767" 
d="M607 515h-442q-96 0 -96 105q0 113 102 113h429q103 0 103 -113q0 -105 -96 -105zM388 1402q144 0 239 -105q74 -82 74 -194q0 -129 -106 -218q-89 -75 -209 -75q-142 0 -237 101q-79 84 -79 195q0 128 96 214q93 82 222 82z" />
    <glyph glyph-name="guillemotright" unicode="&#xbb;" horiz-adv-x="978" 
d="M152 690l-70 109q-29 45 -29 94q0 62 41.5 105t102.5 43q81 0 136 -83l82 -124q65 -98 65 -146q0 -43 -57 -131l-81 -125q-58 -90 -136 -90t-123 63q-29 41 -29 85q0 40 28 86zM596 690l-70 109q-29 45 -29 94q0 62 41.5 105t102.5 43q79 0 135 -83l83 -124
q65 -97 65 -146q0 -43 -57 -131l-81 -125q-58 -90 -137 -90q-78 0 -123 63q-29 40 -29 85q0 39 29 86z" />
    <glyph glyph-name="onequarter" unicode="&#xbc;" horiz-adv-x="1885" 
d="M284 1114h-42q-120 0 -120 120q0 131 152 131h139q158 0 158 -163v-508q0 -53 -24 -90q-41 -63 -118 -63q-67 0 -106 42.5t-39 110.5v420zM491 228l621 1055q53 90 139 90q58 0 95 -35.5t37 -93.5q0 -54 -39 -120l-598 -1012q-70 -119 -157 -119q-128 0 -128 136
q0 48 30 99zM1764 427q119 -27 119 -129q0 -113 -119 -130q1 -13 1 -18q0 -67 -38 -110q-39 -46 -105 -46q-104 0 -136 92q-9 26 -9 82h-164q-167 0 -167 146v110q0 52 26 99l117 210q48 86 136 86h208q131 0 131 -180v-212zM1477 428v117l-67 -117h67z" />
    <glyph glyph-name="onehalf" unicode="&#xbd;" horiz-adv-x="1885" 
d="M284 1114h-42q-120 0 -120 120q0 131 152 131h139q158 0 158 -163v-508q0 -53 -24 -90q-41 -63 -118 -63q-67 0 -106 42.5t-39 110.5v420zM491 228l621 1055q53 90 139 90q58 0 95 -35.5t37 -93.5q0 -54 -39 -120l-598 -1012q-70 -119 -157 -119q-128 0 -128 136
q0 48 30 99zM1643 261q158 0 158 -129q0 -60 -43 -100q-35 -32 -112 -32h-321q-141 0 -141 128q0 57 52 110l252 259q24 25 24 40q0 30 -33 30q-17 0 -50.5 -50.5t-106.5 -50.5q-59 0 -102.5 39.5t-43.5 97.5q0 100 104 172q94 66 198 66q158 0 255 -120q66 -81 66 -189
q0 -131 -156 -271z" />
    <glyph glyph-name="threequarters" unicode="&#xbe;" horiz-adv-x="1885" 
d="M621 983q70 -84 70 -165q0 -104 -71 -184q-97 -110 -247 -110q-130 0 -226 89q-78 73 -78 154q0 58 43 96.5t102 38.5q74 0 110 -55q30 -46 50 -46q32 0 32 34q0 25 -33 39q-70 29 -70 90q0 39 20 59q13 12 57 32q22 10 22 29q0 32 -31 32q-17 0 -37 -29
q-42 -59 -114 -59q-58 0 -100 38t-42 96q0 96 100 164q90 61 190 61q118 0 210 -75q98 -80 98 -196q0 -43 -14 -71q-5 -10 -41 -62zM511 228l621 1055q53 90 139 90q58 0 95 -35.5t37 -93.5q0 -54 -39 -120l-598 -1012q-70 -119 -157 -119q-128 0 -128 136q0 48 30 99z
M1763 427q119 -27 119 -129q0 -113 -119 -130q1 -13 1 -18q0 -67 -38 -110q-39 -46 -105 -46q-104 0 -136 92q-9 26 -9 82h-164q-167 0 -167 146v110q0 52 26 99l117 210q48 86 136 86h208q131 0 131 -180v-212zM1476 428v117l-67 -117h67z" />
    <glyph glyph-name="questiondown" unicode="&#xbf;" horiz-adv-x="981" 
d="M748 550q91 1 155.5 -62.5t64.5 -153.5q0 -154 -158 -270q-138 -101 -307 -101q-140 0 -260 73q-228 138 -228 427q0 201 129 330t306 129q159 0 216 -101q26 -47 26 -99q0 -106 -104 -168q-24 -15 -102 -39q-38 -12 -38 -54q0 -56 56 -56q31 0 57 37q33 47 38 49
q57 58 149 59zM492 1402q89 1 151 -62t62 -152q0 -88 -59.5 -151t-147.5 -63q-92 0 -155.5 63.5t-63.5 155.5q0 88 69 152q60 56 144 57z" />
    <glyph glyph-name="Agrave" unicode="&#xc0;" horiz-adv-x="1289" 
d="M435 177q-32 -76 -66 -113q-68 -74 -165 -74q-119 0 -185 96q-39 57 -39 128q0 59 28 119l427 909q62 133 207 133q147 0 211 -137l431 -916q26 -55 26 -109q0 -80 -52 -142q-68 -81 -174 -81q-87 0 -145 54q-43 40 -86 133h-418zM551 1899q73 1 163 -117t90 -178
q0 -54 -46 -98t-101 -44q-73 0 -155 106q-98 126 -98 187q0 58 44.5 100.5t102.5 43.5z" />
    <glyph glyph-name="Aacute" unicode="&#xc1;" horiz-adv-x="1289" 
d="M435 177q-32 -76 -66 -113q-68 -74 -165 -74q-119 0 -185 96q-39 57 -39 128q0 59 28 119l427 909q62 133 207 133q147 0 211 -137l431 -916q26 -55 26 -109q0 -80 -52 -142q-68 -81 -174 -81q-87 0 -145 54q-43 40 -86 133h-418zM738 1893q52 0 98 -37q58 -47 54 -110
q-4 -72 -136 -218q-61 -68 -128 -68q-47 0 -89 35q-55 45 -55 112q0 71 119 202q76 83 137 84z" />
    <glyph glyph-name="Acircumflex" unicode="&#xc2;" horiz-adv-x="1289" 
d="M435 177q-32 -76 -66 -113q-68 -74 -165 -74q-119 0 -185 96q-39 57 -39 128q0 59 28 119l427 909q62 133 207 133q147 0 211 -137l431 -916q26 -55 26 -109q0 -80 -52 -142q-68 -81 -174 -81q-87 0 -145 54q-43 40 -86 133h-418zM642 1563l-70 -57q-52 -42 -105 -42
q-60 0 -101 41.5t-41 101.5q0 74 71 127l146 109q56 42 104 42q61 0 127 -56l125 -106q67 -57 67 -119q0 -56 -43 -100t-99 -44q-59 0 -110 43z" />
    <glyph glyph-name="Atilde" unicode="&#xc3;" horiz-adv-x="1289" 
d="M435 177q-32 -76 -66 -113q-68 -74 -165 -74q-119 0 -185 96q-39 57 -39 128q0 59 28 119l427 909q62 133 207 133q147 0 211 -137l431 -916q26 -55 26 -109q0 -80 -52 -142q-68 -81 -174 -81q-87 0 -145 54q-43 40 -86 133h-418zM475 1836q35 2 100 -23q125 -48 155 -48
t75 37q40 33 86 33q52 0 88 -34t36 -86q0 -82 -71.5 -156t-153.5 -74q-41 0 -122 37q-72 33 -105 33q-31 0 -84 -40q-40 -30 -82 -30q-54 0 -88.5 34.5t-34.5 88.5q0 80 61 152t140 76z" />
    <glyph glyph-name="Adieresis" unicode="&#xc4;" horiz-adv-x="1289" 
d="M435 177q-32 -76 -66 -113q-68 -74 -165 -74q-119 0 -185 96q-39 57 -39 128q0 59 28 119l427 909q62 133 207 133q147 0 211 -137l431 -916q26 -55 26 -109q0 -80 -52 -142q-68 -81 -174 -81q-87 0 -145 54q-43 40 -86 133h-418zM408 1842q76 0 131 -60q47 -52 47 -121
q0 -75 -53 -128t-128 -53t-128 53.5t-53 128.5q0 76 54 128t130 52zM886 1847q74 0 126.5 -54t52.5 -128q0 -76 -53 -129.5t-129 -53.5q-77 0 -130 53.5t-53 130.5q0 78 61 134q52 47 125 47z" />
    <glyph glyph-name="Aring" unicode="&#xc5;" horiz-adv-x="1289" 
d="M435 177q-32 -76 -66 -113q-68 -74 -165 -74q-119 0 -185 96q-39 57 -39 128q0 59 28 119l427 909q62 133 207 133q147 0 211 -137l431 -916q26 -55 26 -109q0 -80 -52 -142q-68 -81 -174 -81q-87 0 -145 54q-43 40 -86 133h-418zM635 1858q81 0 138.5 -58.5t57.5 -140.5
q0 -84 -58 -142t-142 -58t-141.5 58.5t-57.5 142.5t59.5 141t143.5 57z" />
    <glyph glyph-name="AE" unicode="&#xc6;" horiz-adv-x="1690" 
d="M434 175q-44 -78 -76 -113q-61 -66 -153 -66q-95 0 -163 65.5t-68 159.5q0 61 35 121l529 906q42 72 106 97q49 20 145 20h632q104 0 170 -54q71 -58 71 -161q0 -91 -66.5 -148.5t-228.5 -57.5h-182v-94h157q99 0 146 -35q65 -48 65 -131q0 -69 -50 -116
q-46 -43 -171 -43h-147v-104h214q126 0 185 -47q76 -61 76 -161q0 -111 -84 -175q-50 -38 -168 -38h-391q-145 0 -205 48q-56 45 -78 127h-300z" />
    <glyph glyph-name="Ccedilla" unicode="&#xc7;" horiz-adv-x="1415" 
d="M947 -13q27 -42 27 -87q0 -71 -62 -149l-85 -107q-71 -89 -157 -89q-68 0 -123 44q-66 53 -66 130q0 67 75 160l70 87q-99 20 -177 58q-187 91 -297.5 265t-110.5 381q0 174 82 332q95 182 266 286t376 104q252 0 458 -167q164 -133 164 -273q0 -120 -100 -186
q-57 -38 -124 -38q-55 0 -105 26q-21 11 -104 101q-77 84 -193 84q-112 0 -187.5 -77.5t-75.5 -189.5q0 -111 75.5 -188.5t186.5 -77.5q92 0 171 62q48 47 98.5 93t130.5 46q92 0 159.5 -65t67.5 -156q0 -138 -156 -263q-130 -104 -284 -146z" />
    <glyph glyph-name="Egrave" unicode="&#xc8;" horiz-adv-x="1052" 
d="M547 422h205q127 0 189 -52q73 -62 73 -160q0 -100 -73 -162q-57 -48 -187 -48h-351q-124 0 -170 19q-90 37 -119 121q-18 54 -18 177v742q0 93 6 125q11 65 53 110q48 51 122 65q35 6 142 6h269q110 0 128 -2q72 -7 118 -42q82 -62 82 -162q0 -108 -72 -165
q-64 -51 -175 -51h-222v-93h177q78 0 129 -41q54 -44 54 -121q0 -163 -199 -163h-161v-103zM460 1899q73 1 163 -117t90 -178q0 -54 -46 -98t-101 -44q-73 0 -155 106q-98 126 -98 187q0 58 44.5 100.5t102.5 43.5z" />
    <glyph glyph-name="Eacute" unicode="&#xc9;" horiz-adv-x="1052" 
d="M547 422h205q127 0 189 -52q73 -62 73 -160q0 -100 -73 -162q-57 -48 -187 -48h-351q-124 0 -170 19q-90 37 -119 121q-18 54 -18 177v742q0 93 6 125q11 65 53 110q48 51 122 65q35 6 142 6h269q110 0 128 -2q72 -7 118 -42q82 -62 82 -162q0 -108 -72 -165
q-64 -51 -175 -51h-222v-93h177q78 0 129 -41q54 -44 54 -121q0 -163 -199 -163h-161v-103zM661 1893q52 0 98 -37q58 -47 54 -110q-4 -72 -136 -218q-61 -68 -128 -68q-47 0 -89 35q-55 45 -55 112q0 71 119 202q76 83 137 84z" />
    <glyph glyph-name="Ecircumflex" unicode="&#xca;" horiz-adv-x="1052" 
d="M547 422h205q127 0 189 -52q73 -62 73 -160q0 -100 -73 -162q-57 -48 -187 -48h-351q-124 0 -170 19q-90 37 -119 121q-18 54 -18 177v742q0 93 6 125q11 65 53 110q48 51 122 65q35 6 142 6h269q110 0 128 -2q72 -7 118 -42q82 -62 82 -162q0 -108 -72 -165
q-64 -51 -175 -51h-222v-93h177q78 0 129 -41q54 -44 54 -121q0 -163 -199 -163h-161v-103zM551 1563l-70 -57q-52 -42 -105 -42q-60 0 -101 41.5t-41 101.5q0 74 71 127l146 109q56 42 104 42q61 0 127 -56l125 -106q67 -57 67 -119q0 -56 -43 -100t-99 -44q-59 0 -110 43z
" />
    <glyph glyph-name="Edieresis" unicode="&#xcb;" horiz-adv-x="1052" 
d="M547 422h205q127 0 189 -52q73 -62 73 -160q0 -100 -73 -162q-57 -48 -187 -48h-351q-124 0 -170 19q-90 37 -119 121q-18 54 -18 177v742q0 93 6 125q11 65 53 110q48 51 122 65q35 6 142 6h269q110 0 128 -2q72 -7 118 -42q82 -62 82 -162q0 -108 -72 -165
q-64 -51 -175 -51h-222v-93h177q78 0 129 -41q54 -44 54 -121q0 -163 -199 -163h-161v-103zM317 1842q76 0 131 -60q47 -52 47 -121q0 -75 -53 -128t-128 -53t-128 53.5t-53 128.5q0 76 54 128t130 52zM795 1847q74 0 126.5 -54t52.5 -128q0 -76 -53 -129.5t-129 -53.5
q-77 0 -130 53.5t-53 130.5q0 78 61 134q52 47 125 47z" />
    <glyph glyph-name="Igrave" unicode="&#xcc;" horiz-adv-x="642" 
d="M546 1096v-847q0 -110 -57 -181q-61 -78 -169 -78q-99 0 -167 73q-57 61 -57 186v847q0 142 57 206q65 73 167 73t167 -72q59 -66 59 -207zM228 1899q73 1 163 -117t90 -178q0 -54 -46 -98t-101 -44q-73 0 -155 106q-98 126 -98 187q0 58 44.5 100.5t102.5 43.5z" />
    <glyph glyph-name="Iacute" unicode="&#xcd;" horiz-adv-x="642" 
d="M546 1096v-847q0 -110 -57 -181q-61 -78 -169 -78q-99 0 -167 73q-57 61 -57 186v847q0 142 57 206q65 73 167 73t167 -72q59 -66 59 -207zM416 1893q52 0 98 -37q58 -47 54 -110q-4 -72 -136 -218q-61 -68 -128 -68q-47 0 -89 35q-55 45 -55 112q0 71 119 202
q76 83 137 84z" />
    <glyph glyph-name="Icircumflex" unicode="&#xce;" horiz-adv-x="642" 
d="M546 1096v-847q0 -110 -57 -181q-61 -78 -169 -78q-99 0 -167 73q-57 61 -57 186v847q0 142 57 206q65 73 167 73t167 -72q59 -66 59 -207zM318 1563l-70 -57q-52 -42 -105 -42q-60 0 -101 41.5t-41 101.5q0 74 71 127l146 109q56 42 104 42q61 0 127 -56l125 -106
q67 -57 67 -119q0 -56 -43 -100t-99 -44q-59 0 -110 43z" />
    <glyph glyph-name="Idieresis" unicode="&#xcf;" horiz-adv-x="642" 
d="M546 1096v-847q0 -110 -57 -181q-61 -78 -169 -78q-99 0 -167 73q-57 61 -57 186v847q0 142 57 206q65 73 167 73t167 -72q59 -66 59 -207zM106 1842q76 0 131 -60q47 -52 47 -121q0 -75 -53 -128t-128 -53t-128 53.5t-53 128.5q0 76 54 128t130 52zM543 1847
q74 0 126.5 -54t52.5 -128q0 -76 -53 -129.5t-129 -53.5q-77 0 -130 53.5t-53 130.5q0 78 61 134q52 47 125 47z" />
    <glyph glyph-name="Eth" unicode="&#xd0;" horiz-adv-x="1393" 
d="M96 549q-96 22 -96 128q0 116 96 140v241q0 97 3 119q8 63 46 107q69 81 210 81h275q302 0 495 -172q227 -202 227 -509q0 -150 -66 -290q-113 -240 -356 -340q-131 -54 -351 -54h-191q-135 0 -190 36q-71 46 -90 118q-12 42 -12 154v241z" />
    <glyph glyph-name="Ntilde" unicode="&#xd1;" horiz-adv-x="1404" 
d="M858 846v254q0 117 41 178q65 97 186 97q104 0 171 -81q53 -64 53 -179v-837q0 -140 -49 -203q-66 -85 -175 -85t-180 91l-359 458v-287q0 -119 -49 -180q-66 -82 -173 -82q-114 0 -180 88q-48 64 -48 192v863q0 109 63.5 175.5t172.5 66.5q94 0 167 -89zM533 1836
q35 2 100 -23q125 -48 155 -48t75 37q40 33 86 33q52 0 88 -34t36 -86q0 -82 -71.5 -156t-153.5 -74q-41 0 -122 37q-72 33 -105 33q-31 0 -84 -40q-40 -30 -82 -30q-54 0 -88.5 34.5t-34.5 88.5q0 80 61 152t140 76z" />
    <glyph glyph-name="Ograve" unicode="&#xd2;" horiz-adv-x="1521" 
d="M759 1402q208 2 382 -108.5t264 -291.5q75 -150 75 -318q0 -189 -93 -354t-254 -263q-171 -104 -378 -104q-201 0 -375.5 108.5t-263.5 289.5q-75 152 -75 334q0 150 65 290q89 193 266 305q173 110 387 112zM680 1899q73 1 163 -117t90 -178q0 -54 -46 -98t-101 -44
q-73 0 -155 106q-98 126 -98 187q0 58 44.5 100.5t102.5 43.5z" />
    <glyph glyph-name="Oacute" unicode="&#xd3;" horiz-adv-x="1521" 
d="M759 1402q208 2 382 -108.5t264 -291.5q75 -150 75 -318q0 -189 -93 -354t-254 -263q-171 -104 -378 -104q-201 0 -375.5 108.5t-263.5 289.5q-75 152 -75 334q0 150 65 290q89 193 266 305q173 110 387 112zM854 1893q52 0 98 -37q58 -47 54 -110q-4 -72 -136 -218
q-61 -68 -128 -68q-47 0 -89 35q-55 45 -55 112q0 71 119 202q76 83 137 84z" />
    <glyph glyph-name="Ocircumflex" unicode="&#xd4;" horiz-adv-x="1521" 
d="M759 1402q208 2 382 -108.5t264 -291.5q75 -150 75 -318q0 -189 -93 -354t-254 -263q-171 -104 -378 -104q-201 0 -375.5 108.5t-263.5 289.5q-75 152 -75 334q0 150 65 290q89 193 266 305q173 110 387 112zM757 1563l-70 -57q-52 -42 -105 -42q-60 0 -101 41.5
t-41 101.5q0 74 71 127l146 109q56 42 104 42q61 0 127 -56l125 -106q67 -57 67 -119q0 -56 -43 -100t-99 -44q-59 0 -110 43z" />
    <glyph glyph-name="Otilde" unicode="&#xd5;" horiz-adv-x="1521" 
d="M759 1402q208 2 382 -108.5t264 -291.5q75 -150 75 -318q0 -189 -93 -354t-254 -263q-171 -104 -378 -104q-201 0 -375.5 108.5t-263.5 289.5q-75 152 -75 334q0 150 65 290q89 193 266 305q173 110 387 112zM604 1836q35 2 100 -23q125 -48 155 -48t75 37q40 33 86 33
q52 0 88 -34t36 -86q0 -82 -71.5 -156t-153.5 -74q-41 0 -122 37q-72 33 -105 33q-31 0 -84 -40q-40 -30 -82 -30q-54 0 -88.5 34.5t-34.5 88.5q0 80 61 152t140 76z" />
    <glyph glyph-name="Odieresis" unicode="&#xd6;" horiz-adv-x="1521" 
d="M759 1402q208 2 382 -108.5t264 -291.5q75 -150 75 -318q0 -189 -93 -354t-254 -263q-171 -104 -378 -104q-201 0 -375.5 108.5t-263.5 289.5q-75 152 -75 334q0 150 65 290q89 193 266 305q173 110 387 112zM524 1842q76 0 131 -60q47 -52 47 -121q0 -75 -53 -128
t-128 -53t-128 53.5t-53 128.5q0 76 54 128t130 52zM1002 1847q74 0 126.5 -54t52.5 -128q0 -76 -53 -129.5t-129 -53.5q-77 0 -130 53.5t-53 130.5q0 78 61 134q52 47 125 47z" />
    <glyph glyph-name="multiply" unicode="&#xd7;" horiz-adv-x="1184" 
d="M591 896l168 168q64 64 136 64q48 0 95 -31q78 -52 78 -144q0 -65 -67 -132l-168 -167l166 -166q66 -66 66 -135q0 -76 -57 -129q-49 -45 -114 -45q-71 0 -140 69l-163 163l-165 -165q-66 -66 -136 -66q-76 0 -129 57q-45 49 -45 114q0 71 69 140l164 163l-168 167
q-64 64 -64 137q0 69 52 120.5t122 51.5q66 0 132 -66z" />
    <glyph glyph-name="Oslash" unicode="&#xd8;" horiz-adv-x="1521" 
d="M118 359q-77 176 -77 316q0 218 112 394.5t309 266.5q145 66 301 66q138 0 324 -80q98 80 172 80q81 0 147 -56q79 -67 79 -170q0 -82 -80 -178q74 -175 74 -311q0 -316 -229 -530q-208 -194 -495 -194q-143 0 -320 79q-84 -79 -167 -79q-108 0 -175 87q-51 66 -51 142
q0 73 76 167z" />
    <glyph glyph-name="Ugrave" unicode="&#xd9;" horiz-adv-x="1314" 
d="M532 1109v-537q0 -156 125 -156t125 150v544q0 75 4 97q8 42 43 84q68 84 174 84q107 0 176 -82q53 -63 53 -217v-482q0 -268 -142 -430q-177 -201 -433 -201q-157 0 -296 84q-177 107 -247 306q-32 91 -32 241v482q0 84 4 111q9 56 44 100q69 88 178 88q97 0 165 -71
q59 -61 59 -195zM550 1899q73 1 163 -117t90 -178q0 -54 -46 -98t-101 -44q-73 0 -155 106q-98 126 -98 187q0 58 44.5 100.5t102.5 43.5z" />
    <glyph glyph-name="Uacute" unicode="&#xda;" horiz-adv-x="1314" 
d="M532 1109v-537q0 -156 125 -156t125 150v544q0 75 4 97q8 42 43 84q68 84 174 84q107 0 176 -82q53 -63 53 -217v-482q0 -268 -142 -430q-177 -201 -433 -201q-157 0 -296 84q-177 107 -247 306q-32 91 -32 241v482q0 84 4 111q9 56 44 100q69 88 178 88q97 0 165 -71
q59 -61 59 -195zM764 1893q52 0 98 -37q58 -47 54 -110q-4 -72 -136 -218q-61 -68 -128 -68q-47 0 -89 35q-55 45 -55 112q0 71 119 202q76 83 137 84z" />
    <glyph glyph-name="Ucircumflex" unicode="&#xdb;" horiz-adv-x="1314" 
d="M532 1109v-537q0 -156 125 -156t125 150v544q0 75 4 97q8 42 43 84q68 84 174 84q107 0 176 -82q53 -63 53 -217v-482q0 -268 -142 -430q-177 -201 -433 -201q-157 0 -296 84q-177 107 -247 306q-32 91 -32 241v482q0 84 4 111q9 56 44 100q69 88 178 88q97 0 165 -71
q59 -61 59 -195zM654 1563l-70 -57q-52 -42 -105 -42q-60 0 -101 41.5t-41 101.5q0 74 71 127l146 109q56 42 104 42q61 0 127 -56l125 -106q67 -57 67 -119q0 -56 -43 -100t-99 -44q-59 0 -110 43z" />
    <glyph glyph-name="Udieresis" unicode="&#xdc;" horiz-adv-x="1314" 
d="M532 1109v-537q0 -156 125 -156t125 150v544q0 75 4 97q8 42 43 84q68 84 174 84q107 0 176 -82q53 -63 53 -217v-482q0 -268 -142 -430q-177 -201 -433 -201q-157 0 -296 84q-177 107 -247 306q-32 91 -32 241v482q0 84 4 111q9 56 44 100q69 88 178 88q97 0 165 -71
q59 -61 59 -195zM420 1842q76 0 131 -60q47 -52 47 -121q0 -75 -53 -128t-128 -53t-128 53.5t-53 128.5q0 76 54 128t130 52zM898 1847q74 0 126.5 -54t52.5 -128q0 -76 -53 -129.5t-129 -53.5q-77 0 -130 53.5t-53 130.5q0 78 61 134q52 47 125 47z" />
    <glyph glyph-name="Yacute" unicode="&#xdd;" horiz-adv-x="1114" 
d="M779 569v-302q0 -114 -36 -171q-67 -106 -191 -106q-120 0 -187 104q-37 58 -37 174v301l-306 450q-45 66 -45 138q0 75 50 136q67 82 174 82q125 0 197 -106l159 -233l167 239q70 100 191 100q92 0 158.5 -65.5t66.5 -157.5q0 -69 -43 -130zM685 1893q52 0 98 -37
q58 -47 54 -110q-4 -72 -136 -218q-61 -68 -128 -68q-47 0 -89 35q-55 45 -55 112q0 71 119 202q76 83 137 84z" />
    <glyph glyph-name="Thorn" unicode="&#xde;" horiz-adv-x="1167" 
d="M546 247q-9 -137 -66 -192q-68 -65 -157 -65q-123 0 -188 103q-39 62 -39 215v797q0 141 57 206q64 73 175 73q177 0 218 -155q166 -1 248 -26q155 -47 250.5 -175.5t95.5 -290.5q0 -151 -88 -278q-147 -212 -428 -212h-78z" />
    <glyph glyph-name="germandbls" unicode="&#xdf;" horiz-adv-x="2269" 
d="M260 516q75 0 160 -66q106 -83 145 -83q58 0 58 60q0 33 -34 56q-18 12 -202 77q-301 106 -301 392q0 216 159 341q139 109 344 109q177 0 308 -84.5t131 -217.5q0 -80 -49.5 -133.5t-128.5 -53.5q-83 0 -184 79q-63 49 -95 49q-55 0 -55 -54q0 -51 136 -93
q188 -59 291 -144q137 -114 137 -320q0 -224 -154 -350q-143 -117 -372 -117t-379 122q-120 97 -120 227q0 87 59 145t146 59zM1394 516q76 0 160 -66q105 -83 146 -83q58 0 58 60q0 33 -34 56q-18 12 -202 77q-301 106 -301 392q0 216 159 341q139 109 344 109
q176 0 307 -84.5t131 -217.5q0 -80 -49.5 -133.5t-128.5 -53.5q-83 0 -184 79q-63 49 -96 49q-54 0 -54 -54q0 -50 137 -93q188 -58 291 -144q137 -114 137 -320q0 -224 -154 -350q-143 -117 -373 -117q-229 0 -379 122q-120 97 -120 227q0 87 59 145t146 59z" />
    <glyph glyph-name="agrave" unicode="&#xe0;" horiz-adv-x="1289" 
d="M435 177q-32 -76 -66 -113q-68 -74 -165 -74q-119 0 -185 96q-39 57 -39 128q0 59 28 119l427 909q62 133 207 133q147 0 211 -137l431 -916q26 -55 26 -109q0 -80 -52 -142q-68 -81 -174 -81q-87 0 -145 54q-43 40 -86 133h-418zM551 1899q73 1 163 -117t90 -178
q0 -54 -46 -98t-101 -44q-73 0 -155 106q-98 126 -98 187q0 58 44.5 100.5t102.5 43.5z" />
    <glyph glyph-name="aacute" unicode="&#xe1;" horiz-adv-x="1289" 
d="M435 177q-32 -76 -66 -113q-68 -74 -165 -74q-119 0 -185 96q-39 57 -39 128q0 59 28 119l427 909q62 133 207 133q147 0 211 -137l431 -916q26 -55 26 -109q0 -80 -52 -142q-68 -81 -174 -81q-87 0 -145 54q-43 40 -86 133h-418zM738 1893q52 0 98 -37q58 -47 54 -110
q-4 -72 -136 -218q-61 -68 -128 -68q-47 0 -89 35q-55 45 -55 112q0 71 119 202q76 83 137 84z" />
    <glyph glyph-name="acircumflex" unicode="&#xe2;" horiz-adv-x="1289" 
d="M435 177q-32 -76 -66 -113q-68 -74 -165 -74q-119 0 -185 96q-39 57 -39 128q0 59 28 119l427 909q62 133 207 133q147 0 211 -137l431 -916q26 -55 26 -109q0 -80 -52 -142q-68 -81 -174 -81q-87 0 -145 54q-43 40 -86 133h-418zM642 1563l-70 -57q-52 -42 -105 -42
q-60 0 -101 41.5t-41 101.5q0 74 71 127l146 109q56 42 104 42q61 0 127 -56l125 -106q67 -57 67 -119q0 -56 -43 -100t-99 -44q-59 0 -110 43z" />
    <glyph glyph-name="atilde" unicode="&#xe3;" horiz-adv-x="1289" 
d="M435 177q-32 -76 -66 -113q-68 -74 -165 -74q-119 0 -185 96q-39 57 -39 128q0 59 28 119l427 909q62 133 207 133q147 0 211 -137l431 -916q26 -55 26 -109q0 -80 -52 -142q-68 -81 -174 -81q-87 0 -145 54q-43 40 -86 133h-418zM475 1836q35 2 100 -23q125 -48 155 -48
t75 37q40 33 86 33q52 0 88 -34t36 -86q0 -82 -71.5 -156t-153.5 -74q-41 0 -122 37q-72 33 -105 33q-31 0 -84 -40q-40 -30 -82 -30q-54 0 -88.5 34.5t-34.5 88.5q0 80 61 152t140 76z" />
    <glyph glyph-name="adieresis" unicode="&#xe4;" horiz-adv-x="1289" 
d="M435 177q-32 -76 -66 -113q-68 -74 -165 -74q-119 0 -185 96q-39 57 -39 128q0 59 28 119l427 909q62 133 207 133q147 0 211 -137l431 -916q26 -55 26 -109q0 -80 -52 -142q-68 -81 -174 -81q-87 0 -145 54q-43 40 -86 133h-418zM408 1842q76 0 131 -60q47 -52 47 -121
q0 -75 -53 -128t-128 -53t-128 53.5t-53 128.5q0 76 54 128t130 52zM886 1847q74 0 126.5 -54t52.5 -128q0 -76 -53 -129.5t-129 -53.5q-77 0 -130 53.5t-53 130.5q0 78 61 134q52 47 125 47z" />
    <glyph glyph-name="aring" unicode="&#xe5;" horiz-adv-x="1289" 
d="M435 177q-32 -76 -66 -113q-68 -74 -165 -74q-119 0 -185 96q-39 57 -39 128q0 59 28 119l427 909q62 133 207 133q147 0 211 -137l431 -916q26 -55 26 -109q0 -80 -52 -142q-68 -81 -174 -81q-87 0 -145 54q-43 40 -86 133h-418zM635 1858q81 0 138.5 -58.5t57.5 -140.5
q0 -84 -58 -142t-142 -58t-141.5 58.5t-57.5 142.5t59.5 141t143.5 57z" />
    <glyph glyph-name="ae" unicode="&#xe6;" horiz-adv-x="1690" 
d="M434 175q-44 -78 -76 -113q-61 -66 -153 -66q-95 0 -163 65.5t-68 159.5q0 61 35 121l529 906q42 72 106 97q49 20 145 20h632q104 0 170 -54q71 -58 71 -161q0 -91 -66.5 -148.5t-228.5 -57.5h-182v-94h157q99 0 146 -35q65 -48 65 -131q0 -69 -50 -116
q-46 -43 -171 -43h-147v-104h214q126 0 185 -47q76 -61 76 -161q0 -111 -84 -175q-50 -38 -168 -38h-391q-145 0 -205 48q-56 45 -78 127h-300z" />
    <glyph glyph-name="ccedilla" unicode="&#xe7;" horiz-adv-x="1415" 
d="M947 -13q27 -42 27 -87q0 -71 -62 -149l-85 -107q-71 -89 -157 -89q-68 0 -123 44q-66 53 -66 130q0 67 75 160l70 87q-99 20 -177 58q-187 91 -297.5 265t-110.5 381q0 174 82 332q95 182 266 286t376 104q252 0 458 -167q164 -133 164 -273q0 -120 -100 -186
q-57 -38 -124 -38q-55 0 -105 26q-21 11 -104 101q-77 84 -193 84q-112 0 -187.5 -77.5t-75.5 -189.5q0 -111 75.5 -188.5t186.5 -77.5q92 0 171 62q48 47 98.5 93t130.5 46q92 0 159.5 -65t67.5 -156q0 -138 -156 -263q-130 -104 -284 -146z" />
    <glyph glyph-name="egrave" unicode="&#xe8;" horiz-adv-x="1052" 
d="M547 422h205q127 0 189 -52q73 -62 73 -160q0 -100 -73 -162q-57 -48 -187 -48h-351q-124 0 -170 19q-90 37 -119 121q-18 54 -18 177v742q0 93 6 125q11 65 53 110q48 51 122 65q35 6 142 6h269q110 0 128 -2q72 -7 118 -42q82 -62 82 -162q0 -108 -72 -165
q-64 -51 -175 -51h-222v-93h177q78 0 129 -41q54 -44 54 -121q0 -163 -199 -163h-161v-103zM460 1899q73 1 163 -117t90 -178q0 -54 -46 -98t-101 -44q-73 0 -155 106q-98 126 -98 187q0 58 44.5 100.5t102.5 43.5z" />
    <glyph glyph-name="eacute" unicode="&#xe9;" horiz-adv-x="1052" 
d="M547 422h205q127 0 189 -52q73 -62 73 -160q0 -100 -73 -162q-57 -48 -187 -48h-351q-124 0 -170 19q-90 37 -119 121q-18 54 -18 177v742q0 93 6 125q11 65 53 110q48 51 122 65q35 6 142 6h269q110 0 128 -2q72 -7 118 -42q82 -62 82 -162q0 -108 -72 -165
q-64 -51 -175 -51h-222v-93h177q78 0 129 -41q54 -44 54 -121q0 -163 -199 -163h-161v-103zM661 1893q52 0 98 -37q58 -47 54 -110q-4 -72 -136 -218q-61 -68 -128 -68q-47 0 -89 35q-55 45 -55 112q0 71 119 202q76 83 137 84z" />
    <glyph glyph-name="ecircumflex" unicode="&#xea;" horiz-adv-x="1052" 
d="M547 422h205q127 0 189 -52q73 -62 73 -160q0 -100 -73 -162q-57 -48 -187 -48h-351q-124 0 -170 19q-90 37 -119 121q-18 54 -18 177v742q0 93 6 125q11 65 53 110q48 51 122 65q35 6 142 6h269q110 0 128 -2q72 -7 118 -42q82 -62 82 -162q0 -108 -72 -165
q-64 -51 -175 -51h-222v-93h177q78 0 129 -41q54 -44 54 -121q0 -163 -199 -163h-161v-103zM551 1563l-70 -57q-52 -42 -105 -42q-60 0 -101 41.5t-41 101.5q0 74 71 127l146 109q56 42 104 42q61 0 127 -56l125 -106q67 -57 67 -119q0 -56 -43 -100t-99 -44q-59 0 -110 43z
" />
    <glyph glyph-name="edieresis" unicode="&#xeb;" horiz-adv-x="1052" 
d="M547 422h205q127 0 189 -52q73 -62 73 -160q0 -100 -73 -162q-57 -48 -187 -48h-351q-124 0 -170 19q-90 37 -119 121q-18 54 -18 177v742q0 93 6 125q11 65 53 110q48 51 122 65q35 6 142 6h269q110 0 128 -2q72 -7 118 -42q82 -62 82 -162q0 -108 -72 -165
q-64 -51 -175 -51h-222v-93h177q78 0 129 -41q54 -44 54 -121q0 -163 -199 -163h-161v-103zM317 1842q76 0 131 -60q47 -52 47 -121q0 -75 -53 -128t-128 -53t-128 53.5t-53 128.5q0 76 54 128t130 52zM795 1847q74 0 126.5 -54t52.5 -128q0 -76 -53 -129.5t-129 -53.5
q-77 0 -130 53.5t-53 130.5q0 78 61 134q52 47 125 47z" />
    <glyph glyph-name="igrave" unicode="&#xec;" horiz-adv-x="642" 
d="M546 1096v-847q0 -110 -57 -181q-61 -78 -169 -78q-99 0 -167 73q-57 61 -57 186v847q0 142 57 206q65 73 167 73t167 -72q59 -66 59 -207zM228 1899q73 1 163 -117t90 -178q0 -54 -46 -98t-101 -44q-73 0 -155 106q-98 126 -98 187q0 58 44.5 100.5t102.5 43.5z" />
    <glyph glyph-name="iacute" unicode="&#xed;" horiz-adv-x="642" 
d="M546 1096v-847q0 -110 -57 -181q-61 -78 -169 -78q-99 0 -167 73q-57 61 -57 186v847q0 142 57 206q65 73 167 73t167 -72q59 -66 59 -207zM416 1893q52 0 98 -37q58 -47 54 -110q-4 -72 -136 -218q-61 -68 -128 -68q-47 0 -89 35q-55 45 -55 112q0 71 119 202
q76 83 137 84z" />
    <glyph glyph-name="icircumflex" unicode="&#xee;" horiz-adv-x="642" 
d="M546 1096v-847q0 -110 -57 -181q-61 -78 -169 -78q-99 0 -167 73q-57 61 -57 186v847q0 142 57 206q65 73 167 73t167 -72q59 -66 59 -207zM318 1563l-70 -57q-52 -42 -105 -42q-60 0 -101 41.5t-41 101.5q0 74 71 127l146 109q56 42 104 42q61 0 127 -56l125 -106
q67 -57 67 -119q0 -56 -43 -100t-99 -44q-59 0 -110 43z" />
    <glyph glyph-name="idieresis" unicode="&#xef;" horiz-adv-x="642" 
d="M546 1096v-847q0 -110 -57 -181q-61 -78 -169 -78q-99 0 -167 73q-57 61 -57 186v847q0 142 57 206q65 73 167 73t167 -72q59 -66 59 -207zM106 1842q76 0 131 -60q47 -52 47 -121q0 -75 -53 -128t-128 -53t-128 53.5t-53 128.5q0 76 54 128t130 52zM543 1847
q74 0 126.5 -54t52.5 -128q0 -76 -53 -129.5t-129 -53.5q-77 0 -130 53.5t-53 130.5q0 78 61 134q52 47 125 47z" />
    <glyph glyph-name="eth" unicode="&#xf0;" horiz-adv-x="1393" 
d="M96 549q-96 22 -96 128q0 116 96 140v241q0 97 3 119q8 63 46 107q69 81 210 81h275q302 0 495 -172q227 -202 227 -509q0 -150 -66 -290q-113 -240 -356 -340q-131 -54 -351 -54h-191q-135 0 -190 36q-71 46 -90 118q-12 42 -12 154v241z" />
    <glyph glyph-name="ntilde" unicode="&#xf1;" horiz-adv-x="1404" 
d="M858 846v254q0 117 41 178q65 97 186 97q104 0 171 -81q53 -64 53 -179v-837q0 -140 -49 -203q-66 -85 -175 -85t-180 91l-359 458v-287q0 -119 -49 -180q-66 -82 -173 -82q-114 0 -180 88q-48 64 -48 192v863q0 109 63.5 175.5t172.5 66.5q94 0 167 -89zM533 1836
q35 2 100 -23q125 -48 155 -48t75 37q40 33 86 33q52 0 88 -34t36 -86q0 -82 -71.5 -156t-153.5 -74q-41 0 -122 37q-72 33 -105 33q-31 0 -84 -40q-40 -30 -82 -30q-54 0 -88.5 34.5t-34.5 88.5q0 80 61 152t140 76z" />
    <glyph glyph-name="ograve" unicode="&#xf2;" horiz-adv-x="1521" 
d="M759 1402q208 2 382 -108.5t264 -291.5q75 -150 75 -318q0 -189 -93 -354t-254 -263q-171 -104 -378 -104q-201 0 -375.5 108.5t-263.5 289.5q-75 152 -75 334q0 150 65 290q89 193 266 305q173 110 387 112zM680 1899q73 1 163 -117t90 -178q0 -54 -46 -98t-101 -44
q-73 0 -155 106q-98 126 -98 187q0 58 44.5 100.5t102.5 43.5z" />
    <glyph glyph-name="oacute" unicode="&#xf3;" horiz-adv-x="1521" 
d="M759 1402q208 2 382 -108.5t264 -291.5q75 -150 75 -318q0 -189 -93 -354t-254 -263q-171 -104 -378 -104q-201 0 -375.5 108.5t-263.5 289.5q-75 152 -75 334q0 150 65 290q89 193 266 305q173 110 387 112zM854 1893q52 0 98 -37q58 -47 54 -110q-4 -72 -136 -218
q-61 -68 -128 -68q-47 0 -89 35q-55 45 -55 112q0 71 119 202q76 83 137 84z" />
    <glyph glyph-name="ocircumflex" unicode="&#xf4;" horiz-adv-x="1521" 
d="M759 1402q208 2 382 -108.5t264 -291.5q75 -150 75 -318q0 -189 -93 -354t-254 -263q-171 -104 -378 -104q-201 0 -375.5 108.5t-263.5 289.5q-75 152 -75 334q0 150 65 290q89 193 266 305q173 110 387 112zM757 1563l-70 -57q-52 -42 -105 -42q-60 0 -101 41.5
t-41 101.5q0 74 71 127l146 109q56 42 104 42q61 0 127 -56l125 -106q67 -57 67 -119q0 -56 -43 -100t-99 -44q-59 0 -110 43z" />
    <glyph glyph-name="otilde" unicode="&#xf5;" horiz-adv-x="1521" 
d="M759 1402q208 2 382 -108.5t264 -291.5q75 -150 75 -318q0 -189 -93 -354t-254 -263q-171 -104 -378 -104q-201 0 -375.5 108.5t-263.5 289.5q-75 152 -75 334q0 150 65 290q89 193 266 305q173 110 387 112zM604 1836q35 2 100 -23q125 -48 155 -48t75 37q40 33 86 33
q52 0 88 -34t36 -86q0 -82 -71.5 -156t-153.5 -74q-41 0 -122 37q-72 33 -105 33q-31 0 -84 -40q-40 -30 -82 -30q-54 0 -88.5 34.5t-34.5 88.5q0 80 61 152t140 76z" />
    <glyph glyph-name="odieresis" unicode="&#xf6;" horiz-adv-x="1521" 
d="M759 1402q208 2 382 -108.5t264 -291.5q75 -150 75 -318q0 -189 -93 -354t-254 -263q-171 -104 -378 -104q-201 0 -375.5 108.5t-263.5 289.5q-75 152 -75 334q0 150 65 290q89 193 266 305q173 110 387 112zM524 1842q76 0 131 -60q47 -52 47 -121q0 -75 -53 -128
t-128 -53t-128 53.5t-53 128.5q0 76 54 128t130 52zM1002 1847q74 0 126.5 -54t52.5 -128q0 -76 -53 -129.5t-129 -53.5q-77 0 -130 53.5t-53 130.5q0 78 61 134q52 47 125 47z" />
    <glyph glyph-name="divide" unicode="&#xf7;" horiz-adv-x="1184" 
d="M967 479h-746q-84 0 -137 44q-57 48 -57 130q0 83 58 128q53 41 139 41h743q81 0 135.5 -47t54.5 -127q0 -169 -190 -169zM592 1291q84 1 144 -59t60 -144q0 -83 -59 -143.5t-142 -60.5q-88 0 -147 60.5t-59 148.5q0 82 60 139.5t143 58.5zM592 417q84 1 144 -59t60 -144
q0 -83 -59 -143.5t-142 -60.5q-88 0 -147 60.5t-59 148.5q0 82 60 139.5t143 58.5z" />
    <glyph glyph-name="oslash" unicode="&#xf8;" horiz-adv-x="1521" 
d="M118 359q-77 176 -77 316q0 218 112 394.5t309 266.5q145 66 301 66q138 0 324 -80q98 80 172 80q81 0 147 -56q79 -67 79 -170q0 -82 -80 -178q74 -175 74 -311q0 -316 -229 -530q-208 -194 -495 -194q-143 0 -320 79q-84 -79 -167 -79q-108 0 -175 87q-51 66 -51 142
q0 73 76 167z" />
    <glyph glyph-name="ugrave" unicode="&#xf9;" horiz-adv-x="1314" 
d="M532 1109v-537q0 -156 125 -156t125 150v544q0 75 4 97q8 42 43 84q68 84 174 84q107 0 176 -82q53 -63 53 -217v-482q0 -268 -142 -430q-177 -201 -433 -201q-157 0 -296 84q-177 107 -247 306q-32 91 -32 241v482q0 84 4 111q9 56 44 100q69 88 178 88q97 0 165 -71
q59 -61 59 -195zM550 1899q73 1 163 -117t90 -178q0 -54 -46 -98t-101 -44q-73 0 -155 106q-98 126 -98 187q0 58 44.5 100.5t102.5 43.5z" />
    <glyph glyph-name="uacute" unicode="&#xfa;" horiz-adv-x="1314" 
d="M532 1109v-537q0 -156 125 -156t125 150v544q0 75 4 97q8 42 43 84q68 84 174 84q107 0 176 -82q53 -63 53 -217v-482q0 -268 -142 -430q-177 -201 -433 -201q-157 0 -296 84q-177 107 -247 306q-32 91 -32 241v482q0 84 4 111q9 56 44 100q69 88 178 88q97 0 165 -71
q59 -61 59 -195zM764 1893q52 0 98 -37q58 -47 54 -110q-4 -72 -136 -218q-61 -68 -128 -68q-47 0 -89 35q-55 45 -55 112q0 71 119 202q76 83 137 84z" />
    <glyph glyph-name="ucircumflex" unicode="&#xfb;" horiz-adv-x="1314" 
d="M532 1109v-537q0 -156 125 -156t125 150v544q0 75 4 97q8 42 43 84q68 84 174 84q107 0 176 -82q53 -63 53 -217v-482q0 -268 -142 -430q-177 -201 -433 -201q-157 0 -296 84q-177 107 -247 306q-32 91 -32 241v482q0 84 4 111q9 56 44 100q69 88 178 88q97 0 165 -71
q59 -61 59 -195zM654 1563l-70 -57q-52 -42 -105 -42q-60 0 -101 41.5t-41 101.5q0 74 71 127l146 109q56 42 104 42q61 0 127 -56l125 -106q67 -57 67 -119q0 -56 -43 -100t-99 -44q-59 0 -110 43z" />
    <glyph glyph-name="udieresis" unicode="&#xfc;" horiz-adv-x="1314" 
d="M532 1109v-537q0 -156 125 -156t125 150v544q0 75 4 97q8 42 43 84q68 84 174 84q107 0 176 -82q53 -63 53 -217v-482q0 -268 -142 -430q-177 -201 -433 -201q-157 0 -296 84q-177 107 -247 306q-32 91 -32 241v482q0 84 4 111q9 56 44 100q69 88 178 88q97 0 165 -71
q59 -61 59 -195zM420 1842q76 0 131 -60q47 -52 47 -121q0 -75 -53 -128t-128 -53t-128 53.5t-53 128.5q0 76 54 128t130 52zM898 1847q74 0 126.5 -54t52.5 -128q0 -76 -53 -129.5t-129 -53.5q-77 0 -130 53.5t-53 130.5q0 78 61 134q52 47 125 47z" />
    <glyph glyph-name="yacute" unicode="&#xfd;" horiz-adv-x="1114" 
d="M779 569v-302q0 -114 -36 -171q-67 -106 -191 -106q-120 0 -187 104q-37 58 -37 174v301l-306 450q-45 66 -45 138q0 75 50 136q67 82 174 82q125 0 197 -106l159 -233l167 239q70 100 191 100q92 0 158.5 -65.5t66.5 -157.5q0 -69 -43 -130zM685 1893q52 0 98 -37
q58 -47 54 -110q-4 -72 -136 -218q-61 -68 -128 -68q-47 0 -89 35q-55 45 -55 112q0 71 119 202q76 83 137 84z" />
    <glyph glyph-name="thorn" unicode="&#xfe;" horiz-adv-x="1167" 
d="M546 247q-9 -137 -66 -192q-68 -65 -157 -65q-123 0 -188 103q-39 62 -39 215v797q0 141 57 206q64 73 175 73q177 0 218 -155q166 -1 248 -26q155 -47 250.5 -175.5t95.5 -290.5q0 -151 -88 -278q-147 -212 -428 -212h-78z" />
    <glyph glyph-name="ydieresis" unicode="&#xff;" horiz-adv-x="1114" 
d="M779 569v-302q0 -114 -36 -171q-67 -106 -191 -106q-120 0 -187 104q-37 58 -37 174v301l-306 450q-45 66 -45 138q0 75 50 136q67 82 174 82q125 0 197 -106l159 -233l167 239q70 100 191 100q92 0 158.5 -65.5t66.5 -157.5q0 -69 -43 -130zM321 1842q76 0 131 -60
q47 -52 47 -121q0 -75 -53 -128t-128 -53t-128 53.5t-53 128.5q0 76 54 128t130 52zM799 1847q74 0 126.5 -54t52.5 -128q0 -76 -53 -129.5t-129 -53.5q-77 0 -130 53.5t-53 130.5q0 78 61 134q52 47 125 47z" />
    <glyph glyph-name="Cacute" unicode="&#x106;" horiz-adv-x="1415" 
d="M842 1893q52 0 98 -37q58 -47 54 -110q-4 -72 -136 -218q-61 -68 -128 -68q-47 0 -89 35q-55 45 -55 112q0 71 119 202q76 83 137 84zM765 1402q249 1 458 -167q164 -132 164 -273q0 -120 -100 -186q-57 -38 -124 -38q-55 0 -105 26q-21 11 -104 101q-77 84 -193 84
q-112 0 -187.5 -77.5t-75.5 -189.5q0 -111 75.5 -188.5t186.5 -77.5q92 0 171 62q49 47 97 94q52 45 132 45q92 0 159.5 -64.5t67.5 -156.5q0 -125 -147 -253q-206 -180 -476 -180q-167 0 -315 71q-187 90 -297.5 264.5t-110.5 381.5q0 310 230 528q203 192 494 194z" />
    <glyph glyph-name="cacute" unicode="&#x107;" horiz-adv-x="1415" 
d="M842 1893q52 0 98 -37q58 -47 54 -110q-4 -72 -136 -218q-61 -68 -128 -68q-47 0 -89 35q-55 45 -55 112q0 71 119 202q76 83 137 84zM765 1402q249 1 458 -167q164 -132 164 -273q0 -120 -100 -186q-57 -38 -124 -38q-55 0 -105 26q-21 11 -104 101q-77 84 -193 84
q-112 0 -187.5 -77.5t-75.5 -189.5q0 -111 75.5 -188.5t186.5 -77.5q92 0 171 62q49 47 97 94q52 45 132 45q92 0 159.5 -64.5t67.5 -156.5q0 -125 -147 -253q-206 -180 -476 -180q-167 0 -315 71q-187 90 -297.5 264.5t-110.5 381.5q0 310 230 528q203 192 494 194z" />
    <glyph glyph-name="Ccaron" unicode="&#x10c;" horiz-adv-x="1415" 
d="M730 1782l72 60q52 43 110 43q56 0 99 -44t43 -100q0 -60 -68 -118l-124 -106q-67 -57 -127 -57q-48 0 -104 42l-146 109q-71 53 -71 127q0 60 41.5 101.5t101.5 41.5q53 0 104 -42zM765 1402q249 1 458 -167q164 -132 164 -273q0 -120 -100 -186q-57 -38 -124 -38
q-55 0 -105 26q-21 11 -104 101q-77 84 -193 84q-112 0 -187.5 -77.5t-75.5 -189.5q0 -111 75.5 -188.5t186.5 -77.5q92 0 171 62q49 47 97 94q52 45 132 45q92 0 159.5 -64.5t67.5 -156.5q0 -125 -147 -253q-206 -180 -476 -180q-167 0 -315 71q-187 90 -297.5 264.5
t-110.5 381.5q0 310 230 528q203 192 494 194z" />
    <glyph glyph-name="ccaron" unicode="&#x10d;" horiz-adv-x="1415" 
d="M730 1782l72 60q52 43 110 43q56 0 99 -44t43 -100q0 -60 -68 -118l-124 -106q-67 -57 -127 -57q-48 0 -104 42l-146 109q-71 53 -71 127q0 60 41.5 101.5t101.5 41.5q53 0 104 -42zM765 1402q249 1 458 -167q164 -132 164 -273q0 -120 -100 -186q-57 -38 -124 -38
q-55 0 -105 26q-21 11 -104 101q-77 84 -193 84q-112 0 -187.5 -77.5t-75.5 -189.5q0 -111 75.5 -188.5t186.5 -77.5q92 0 171 62q49 47 97 94q52 45 132 45q92 0 159.5 -64.5t67.5 -156.5q0 -125 -147 -253q-206 -180 -476 -180q-167 0 -315 71q-187 90 -297.5 264.5
t-110.5 381.5q0 310 230 528q203 192 494 194z" />
    <glyph glyph-name="dcroat" unicode="&#x111;" horiz-adv-x="1393" 
d="M96 549q-96 22 -96 128q0 116 96 140v241q0 97 3 119q8 63 46 107q69 81 210 81h275q302 0 495 -172q227 -202 227 -509q0 -150 -66 -290q-113 -240 -356 -340q-131 -54 -351 -54h-191q-135 0 -190 36q-71 46 -90 118q-12 42 -12 154v241z" />
    <glyph glyph-name="Gbreve" unicode="&#x11e;" horiz-adv-x="1369" 
d="M478 1845q37 1 107 -63q66 -60 140 -60q69 0 141 61.5t109 61.5q89 0 89 -98q0 -125 -110 -204q-100 -71 -229 -71q-125 0 -219 65q-120 83 -120 210q0 97 92 98zM916 467h-65q-125 0 -170 80q-22 38 -22 84q0 82 64 128q48 35 154 35q169 0 196 -2q130 -9 180 -51
q76 -64 76 -217q0 -117 -5 -204q-7 -126 -157 -229q-186 -128 -404 -128q-262 0 -462 166q-122 102 -191 248.5t-69 305.5q0 206 108 380.5t292 263.5q155 75 320 75q208 0 384 -111q141 -89 141 -213q0 -94 -67 -160.5t-161 -66.5q-39 0 -162 61q-74 37 -142 37
q-106 0 -181 -79.5t-75 -186.5q0 -111 76.5 -188.5t187.5 -77.5q71 0 154 50z" />
    <glyph glyph-name="gbreve" unicode="&#x11f;" horiz-adv-x="1369" 
d="M478 1845q37 1 107 -63q66 -60 140 -60q69 0 141 61.5t109 61.5q89 0 89 -98q0 -125 -110 -204q-100 -71 -229 -71q-125 0 -219 65q-120 83 -120 210q0 97 92 98zM916 467h-65q-125 0 -170 80q-22 38 -22 84q0 82 64 128q48 35 154 35q169 0 196 -2q130 -9 180 -51
q76 -64 76 -217q0 -117 -5 -204q-7 -126 -157 -229q-186 -128 -404 -128q-262 0 -462 166q-122 102 -191 248.5t-69 305.5q0 206 108 380.5t292 263.5q155 75 320 75q208 0 384 -111q141 -89 141 -213q0 -94 -67 -160.5t-161 -66.5q-39 0 -162 61q-74 37 -142 37
q-106 0 -181 -79.5t-75 -186.5q0 -111 76.5 -188.5t187.5 -77.5q71 0 154 50z" />
    <glyph glyph-name="Idotaccent" unicode="&#x130;" horiz-adv-x="642" 
d="M326 1847q75 0 127 -54t52 -129q0 -76 -53 -129t-129 -53q-77 0 -130 53.5t-53 130.5q0 78 61 134q51 47 125 47zM546 1096v-847q0 -110 -57 -181q-61 -78 -169 -78q-99 0 -167 73q-57 61 -57 186v847q0 142 57 206q65 73 167 73t167 -72q59 -66 59 -207z" />
    <glyph glyph-name="dotlessi" unicode="&#x131;" horiz-adv-x="642" 
d="M546 1096v-847q0 -110 -57 -181q-61 -78 -169 -78q-99 0 -167 73q-57 61 -57 186v847q0 142 57 206q65 73 167 73t167 -72q59 -66 59 -207z" />
    <glyph glyph-name="Lslash" unicode="&#x141;" horiz-adv-x="1026" 
d="M579 975l12 8q59 39 109 39q54 0 90.5 -37.5t36.5 -91.5q0 -73 -87 -130l-161 -105v-236h221q102 0 161 -42q86 -62 86 -168q0 -96 -70 -160q-56 -52 -167 -52h-429q-127 0 -192 71q-47 52 -58 133q-3 26 -3 149v73q-15 -2 -21 -2q-51 0 -89 38t-38 89q0 79 91 136l57 36
v400q0 109 57 178q61 74 168 74q112 0 175 -82q51 -66 51 -225v-93z" />
    <glyph glyph-name="lslash" unicode="&#x142;" horiz-adv-x="1026" 
d="M579 975l12 8q59 39 109 39q54 0 90.5 -37.5t36.5 -91.5q0 -73 -87 -130l-161 -105v-236h221q102 0 161 -42q86 -62 86 -168q0 -96 -70 -160q-56 -52 -167 -52h-429q-127 0 -192 71q-47 52 -58 133q-3 26 -3 149v73q-15 -2 -21 -2q-51 0 -89 38t-38 89q0 79 91 136l57 36
v400q0 109 57 178q61 74 168 74q112 0 175 -82q51 -66 51 -225v-93z" />
    <glyph glyph-name="OE" unicode="&#x152;" horiz-adv-x="1991" 
d="M1489 943v-93h139q128 0 168 -37q58 -54 58 -126q0 -83 -68 -135q-37 -28 -165 -28h-132v-103h174q154 0 214 -48q80 -64 80 -163q0 -106 -91 -173q-50 -37 -206 -37h-786q-82 -18 -159 -18q-267 0 -466 200q-209 210 -209 503q0 221 122.5 400t327.5 261q127 51 259 51
q93 0 196 -32h721q167 0 222 -48q75 -66 75 -159q0 -103 -86 -170q-57 -45 -214 -45h-174z" />
    <glyph glyph-name="oe" unicode="&#x153;" horiz-adv-x="1991" 
d="M1489 943v-93h139q128 0 168 -37q58 -54 58 -126q0 -83 -68 -135q-37 -28 -165 -28h-132v-103h174q154 0 214 -48q80 -64 80 -163q0 -106 -91 -173q-50 -37 -206 -37h-786q-82 -18 -159 -18q-267 0 -466 200q-209 210 -209 503q0 221 122.5 400t327.5 261q127 51 259 51
q93 0 196 -32h721q167 0 222 -48q75 -66 75 -159q0 -103 -86 -170q-57 -45 -214 -45h-174z" />
    <glyph glyph-name="Scedilla" unicode="&#x15e;" horiz-adv-x="1134" 
d="M443 -28q-235 38 -339 190q-49 71 -49 150q0 87 59 145.5t146 58.5q77 0 160 -65q107 -84 145 -84q58 0 58 60q0 33 -34 56q-21 14 -202 78q-301 106 -301 391q0 216 159 341q139 109 344 109q177 0 308 -84.5t131 -217.5q0 -80 -49.5 -133.5t-128.5 -53.5q-82 0 -184 79
q-63 49 -95 49q-55 0 -55 -54q0 -51 136 -93q188 -59 291 -144q137 -114 137 -321q0 -156 -84.5 -274t-232.5 -164q31 -44 31 -91q0 -69 -63 -149l-84 -107q-70 -89 -158 -89q-68 0 -123 44q-66 53 -66 130q0 68 75 160z" />
    <glyph glyph-name="scedilla" unicode="&#x15f;" horiz-adv-x="1134" 
d="M443 -28q-235 38 -339 190q-49 71 -49 150q0 87 59 145.5t146 58.5q77 0 160 -65q107 -84 145 -84q58 0 58 60q0 31 -34 56q-21 14 -202 78q-301 106 -301 391q0 216 159 341q139 109 344 109q177 0 308 -84.5t131 -217.5q0 -80 -49.5 -133.5t-128.5 -53.5q-82 0 -184 79
q-63 49 -95 49q-55 0 -55 -54q0 -51 136 -93q188 -59 291 -144q137 -114 137 -321q0 -156 -84.5 -274t-232.5 -164q31 -44 31 -91q0 -69 -63 -149l-84 -107q-70 -89 -158 -89q-68 0 -123 44q-66 53 -66 130q0 68 75 160z" />
    <glyph glyph-name="Scaron" unicode="&#x160;" horiz-adv-x="1134" 
d="M260 516q75 0 160 -66q106 -83 145 -83q58 0 58 60q0 33 -34 56q-18 12 -202 77q-301 106 -301 392q0 216 159 341q139 109 344 109q177 0 308 -84.5t131 -217.5q0 -80 -49.5 -133.5t-128.5 -53.5q-83 0 -184 79q-63 49 -95 49q-55 0 -55 -54q0 -51 136 -93
q188 -59 291 -144q137 -114 137 -320q0 -224 -154 -350q-143 -117 -372 -117t-379 122q-120 97 -120 227q0 87 59 145t146 59zM577 1782l72 60q52 43 110 43q56 0 99 -44t43 -100q0 -60 -68 -118l-124 -106q-67 -57 -127 -57q-48 0 -104 42l-146 109q-71 53 -71 127
q0 60 41.5 101.5t101.5 41.5q53 0 104 -42z" />
    <glyph glyph-name="scaron" unicode="&#x161;" horiz-adv-x="1134" 
d="M260 516q75 0 160 -66q106 -83 145 -83q58 0 58 60q0 33 -34 56q-18 12 -202 77q-301 106 -301 392q0 216 159 341q139 109 344 109q177 0 308 -84.5t131 -217.5q0 -80 -49.5 -133.5t-128.5 -53.5q-83 0 -184 79q-63 49 -95 49q-55 0 -55 -54q0 -51 136 -93
q188 -59 291 -144q137 -114 137 -320q0 -224 -154 -350q-143 -117 -372 -117t-379 122q-120 97 -120 227q0 87 59 145t146 59zM577 1782l72 60q52 43 110 43q56 0 99 -44t43 -100q0 -60 -68 -118l-124 -106q-67 -57 -127 -57q-48 0 -104 42l-146 109q-71 53 -71 127
q0 60 41.5 101.5t101.5 41.5q53 0 104 -42z" />
    <glyph glyph-name="Ydieresis" unicode="&#x178;" horiz-adv-x="1114" 
d="M779 569v-302q0 -114 -36 -171q-67 -106 -191 -106q-120 0 -187 104q-37 58 -37 174v301l-306 450q-45 66 -45 138q0 75 50 136q67 82 174 82q125 0 197 -106l159 -233l167 239q70 100 191 100q92 0 158.5 -65.5t66.5 -157.5q0 -69 -43 -130zM321 1842q76 0 131 -60
q47 -52 47 -121q0 -75 -53 -128t-128 -53t-128 53.5t-53 128.5q0 76 54 128t130 52zM799 1847q74 0 126.5 -54t52.5 -128q0 -76 -53 -129.5t-129 -53.5q-77 0 -130 53.5t-53 130.5q0 78 61 134q52 47 125 47z" />
    <glyph glyph-name="Zcaron" unicode="&#x17d;" horiz-adv-x="1234" 
d="M267 0q-5 2 -77 16q-43 9 -65 26q-82 62 -82 170q0 71 43 132l422 603h-243q-96 0 -158 55q-66 58 -66 153q0 104 72 159q65 51 172 51h603q121 0 191 -43q87 -53 87 -166q0 -66 -64 -157l-405 -574h226q78 0 120 -13q35 -10 66 -33q84 -62 84 -168q0 -105 -77 -166
q-23 -20 -72 -46zM599 1770l72 60q52 43 110 43q56 0 99 -44t43 -100q0 -60 -68 -118l-124 -106q-67 -57 -127 -57q-48 0 -104 42l-146 109q-71 53 -71 127q0 60 41.5 101.5t101.5 41.5q53 0 104 -42z" />
    <glyph glyph-name="zcaron" unicode="&#x17e;" horiz-adv-x="1234" 
d="M267 0q-5 2 -77 16q-43 9 -65 26q-82 62 -82 170q0 71 43 132l422 603h-243q-96 0 -158 55q-66 58 -66 153q0 104 72 159q65 51 172 51h603q121 0 191 -43q87 -53 87 -166q0 -66 -64 -157l-405 -574h226q78 0 120 -13q35 -10 66 -33q84 -62 84 -168q0 -105 -77 -166
q-23 -20 -72 -46zM599 1770l72 60q52 43 110 43q56 0 99 -44t43 -100q0 -60 -68 -118l-124 -106q-67 -57 -127 -57q-48 0 -104 42l-146 109q-71 53 -71 127q0 60 41.5 101.5t101.5 41.5q53 0 104 -42z" />
    <glyph glyph-name="florin" unicode="&#x192;" horiz-adv-x="1184" 
d="M343 708q-47 2 -71 9q-79 23 -79 110q0 75 56 121q42 35 143 40l28 152q19 91 28 120q20 60 57 108q111 143 361 143q157 0 249 -63q67 -46 67 -131q0 -70 -39 -121q-43 -56 -111 -56q-38 0 -89 30q-10 6 -23 6q-45 0 -62 -101l-15 -87h51q156 0 156 -126
q0 -154 -206 -154h-50l-129 -732q-45 -258 -268 -258q-82 0 -135 45q-56 47 -56 128q0 40 8 85z" />
    <glyph glyph-name="circumflex" unicode="&#x2c6;" horiz-adv-x="1024" 
d="M509 1563l-70 -57q-52 -42 -105 -42q-60 0 -101 41.5t-41 101.5q0 74 71 127l146 109q56 42 104 42q61 0 127 -56l125 -106q67 -57 67 -119q0 -56 -43 -100t-99 -44q-59 0 -110 43z" />
    <glyph glyph-name="caron" unicode="&#x2c7;" horiz-adv-x="1024" 
d="M508 1782l72 60q52 43 110 43q56 0 99 -44t43 -100q0 -60 -68 -118l-124 -106q-67 -57 -127 -57q-48 0 -104 42l-146 109q-71 53 -71 127q0 60 41.5 101.5t101.5 41.5q53 0 104 -42z" />
    <glyph glyph-name="uni02C9" unicode="&#x2c9;" horiz-adv-x="1024" 
d="M746 1508h-465q-182 0 -182 141q0 139 185 139h462q179 0 179 -142q0 -138 -179 -138z" />
    <glyph glyph-name="breve" unicode="&#x2d8;" horiz-adv-x="1024" 
d="M265 1845q37 1 107 -63q66 -60 140 -60q69 0 141 61.5t109 61.5q89 0 89 -98q0 -125 -110 -204q-100 -71 -229 -71q-125 0 -219 65q-120 83 -120 210q0 97 92 98z" />
    <glyph glyph-name="dotaccent" unicode="&#x2d9;" horiz-adv-x="1024" 
d="M515 1847q75 0 127 -54t52 -129q0 -76 -53 -129t-129 -53q-77 0 -130 53.5t-53 130.5q0 78 61 134q51 47 125 47z" />
    <glyph glyph-name="ring" unicode="&#x2da;" horiz-adv-x="1024" 
d="M516 1858q81 0 138.5 -58.5t57.5 -140.5q0 -84 -58 -142t-142 -58t-141.5 58.5t-57.5 142.5t59.5 141t143.5 57z" />
    <glyph glyph-name="ogonek" unicode="&#x2db;" horiz-adv-x="1024" 
d="M736 133q109 0 126 -140q7 -61 72 -113t65 -122q0 -63 -45.5 -101.5t-109.5 -38.5q-110 0 -191 77q-102 96 -102 255q0 100 68 147q52 36 117 36z" />
    <glyph glyph-name="tilde" unicode="&#x2dc;" horiz-adv-x="1024" 
d="M342 1836q35 2 100 -23q125 -48 155 -48t75 37q40 33 86 33q52 0 88 -34t36 -86q0 -82 -71.5 -156t-153.5 -74q-41 0 -122 37q-72 33 -105 33q-31 0 -84 -40q-40 -30 -82 -30q-54 0 -88.5 34.5t-34.5 88.5q0 80 61 152t140 76z" />
    <glyph glyph-name="hungarumlaut" unicode="&#x2dd;" horiz-adv-x="1024" 
d="M381 1893q52 0 98 -37q58 -47 54 -110q-4 -72 -136 -218q-61 -68 -128 -68q-47 0 -89 35q-55 45 -55 112q0 71 119 202q76 83 137 84zM859 1893q52 0 98 -37q58 -47 54 -110q-4 -72 -136 -218q-61 -68 -128 -68q-47 0 -89 35q-55 45 -55 112q0 71 119 202q76 83 137 84z
" />
    <glyph glyph-name="Delta" unicode="&#x394;" horiz-adv-x="1378" 
d="M20 0l446 1365h440l451 -1365h-1337z" />
    <glyph glyph-name="Delta" unicode="&#x2206;" horiz-adv-x="1378" 
d="M20 0l446 1365h440l451 -1365h-1337z" />
    <glyph glyph-name="Omega" unicode="&#x3a9;" horiz-adv-x="1365" 
d="M56 0v367h203q-86 57 -128 112q-85 111 -85 285q0 173 87.5 324.5t237.5 233.5q141 77 312 77q288 0 470 -201q167 -184 167 -435q0 -182 -95 -297q-37 -45 -118 -99h203v-367h-1254z" />
    <glyph glyph-name="Omega" unicode="&#x2126;" horiz-adv-x="1365" 
d="M56 0v367h203q-86 57 -128 112q-85 111 -85 285q0 173 87.5 324.5t237.5 233.5q141 77 312 77q288 0 470 -201q167 -184 167 -435q0 -182 -95 -297q-37 -45 -118 -99h203v-367h-1254z" />
    <glyph glyph-name="pi" unicode="&#x3c0;" horiz-adv-x="1397" 
d="M192 0v673h-150v310h1312v-310h-149v-673h-395v673h-223v-673h-395z" />
    <glyph glyph-name="endash" unicode="&#x2013;" horiz-adv-x="1184" 
d="M993 530h-799q-86 0 -131 44q-51 50 -51 118q0 78 55 121q49 38 130 38h796q78 0 129 -44t51 -120q0 -157 -180 -157z" />
    <glyph glyph-name="emdash" unicode="&#x2014;" horiz-adv-x="1365" 
d="M1186 530h-1004q-86 0 -131 44q-51 50 -51 118q0 78 55 121q49 38 130 38h1001q77 0 128 -44t51 -120q0 -157 -179 -157z" />
    <glyph glyph-name="quoteleft" unicode="&#x2018;" 
d="M379 1191q92 -83 92 -176q0 -92 -62.5 -154.5t-154.5 -62.5q-106 0 -169 85q-45 61 -45 133q0 50 30 112l78 160q56 114 143 114q46 0 82.5 -29.5t36.5 -74.5q0 -35 -31 -107z" />
    <glyph glyph-name="quoteright" unicode="&#x2019;" 
d="M132 1008q-91 86 -91 177q0 92 62.5 154.5t154.5 62.5q106 0 169 -85q45 -61 45 -133q0 -50 -30 -112l-78 -160q-56 -114 -144 -114q-45 0 -80 29q-38 31 -38 75q0 35 30 106z" />
    <glyph glyph-name="quotesinglbase" unicode="&#x201a;" horiz-adv-x="513" 
d="M132 2q-91 84 -91 176t62.5 154.5t154.5 62.5q106 0 169 -85q45 -61 45 -133q0 -50 -30 -112l-78 -160q-56 -114 -144 -114q-45 0 -80 29q-38 31 -38 75q0 35 30 107z" />
    <glyph glyph-name="quotedblleft" unicode="&#x201c;" horiz-adv-x="989" 
d="M379 1191q92 -83 92 -176q0 -92 -62.5 -154.5t-154.5 -62.5q-106 0 -169 85q-45 61 -45 133q0 50 30 112l78 160q56 114 143 114q46 0 82.5 -29.5t36.5 -74.5q0 -35 -31 -107zM857 1191q92 -83 92 -176q0 -92 -62.5 -154.5t-154.5 -62.5q-106 0 -169 85q-45 61 -45 133
q0 50 30 112l78 160q56 114 143 114q46 0 82.5 -29.5t36.5 -74.5q0 -35 -31 -107z" />
    <glyph glyph-name="quotedblright" unicode="&#x201d;" horiz-adv-x="989" 
d="M610 1008q-91 86 -91 177t62.5 154t153.5 63q106 0 169 -85q45 -61 45 -133q0 -53 -29 -112l-78 -160q-56 -114 -144 -114q-45 0 -80 29q-38 31 -38 75q0 35 30 106zM132 1008q-91 86 -91 177q0 92 62.5 154.5t154.5 62.5q106 0 169 -85q45 -61 45 -133q0 -50 -30 -112
l-78 -160q-56 -114 -144 -114q-45 0 -80 29q-38 31 -38 75q0 35 30 106z" />
    <glyph glyph-name="quotedblbase" unicode="&#x201e;" horiz-adv-x="989" 
d="M610 1q-91 84 -91 177q0 90 63 153.5t153 63.5q106 0 169 -85q45 -61 45 -133q0 -54 -29 -113l-78 -160q-56 -114 -144 -114q-45 0 -80 29q-38 31 -38 75q0 36 30 107zM132 1q-91 84 -91 177q0 91 63 154t154 63q106 0 169 -85q45 -61 45 -133q0 -51 -30 -113l-78 -160
q-56 -114 -144 -114q-45 0 -80 29q-38 31 -38 75q0 35 30 107z" />
    <glyph glyph-name="dagger" unicode="&#x2020;" horiz-adv-x="1184" 
d="M388 760h-71q-87 0 -142 45q-60 48 -60 134t61 133q55 42 144 42h68v182q0 259 201 259q208 0 208 -259v-182h75q85 0 141.5 -49t56.5 -132q0 -89 -69 -141q-43 -32 -129 -32h-75v-690q0 -259 -208 -259q-201 0 -201 259v690z" />
    <glyph glyph-name="daggerdbl" unicode="&#x2021;" horiz-adv-x="1184" 
d="M388 814h-71q-88 0 -143 44q-59 48 -59 135q0 86 61 133q55 42 144 42h68v128q0 259 201 259q208 0 208 -259v-128h75q85 0 141.5 -49t56.5 -132q0 -89 -69 -141q-43 -32 -129 -32h-75v-235h75q198 0 198 -174q0 -84 -58 -134q-54 -47 -140 -47h-75v-156
q0 -258 -208 -258q-201 0 -201 258v156h-68q-89 0 -144 42q-61 47 -61 133q0 91 72 146q44 34 130 34h71v235z" />
    <glyph glyph-name="bullet" unicode="&#x2022;" horiz-adv-x="1365" 
d="M689 978q116 0 198 -84t82 -200q0 -119 -82.5 -201.5t-201.5 -82.5q-118 0 -201 83t-83 201q0 121 83.5 202.5t204.5 81.5z" />
    <glyph glyph-name="ellipsis" unicode="&#x2026;" horiz-adv-x="1538" 
d="M257 391q89 1 152 -62t63 -152q0 -82 -57 -144q-65 -70 -155 -70q-92 0 -154.5 64t-62.5 156q0 86 64 146.5t150 61.5zM770 391q88 1 151 -62.5t63 -151.5t-62 -151t-150 -63q-92 0 -154 64t-62 156q0 86 64 146.5t150 61.5zM1282 391q89 1 152 -62t63 -152
q0 -82 -57 -144q-65 -70 -155 -70q-92 0 -154.5 64t-62.5 156q0 86 64 146.5t150 61.5z" />
    <glyph glyph-name="perthousand" unicode="&#x2030;" horiz-adv-x="2505" 
d="M389 1402q166 0 273 -128q83 -99 83 -236q0 -155 -120 -264q-101 -92 -238 -92q-163 0 -271 123q-89 102 -89 237q0 150 109 258q102 102 253 102zM421 279l583 992q62 105 166 105q76 0 124.5 -50.5t48.5 -127.5q0 -51 -45 -127l-556 -941q-29 -49 -38 -62
q-25 -36 -51 -52q-42 -26 -91 -26q-73 0 -123 50.5t-50 123.5q0 61 32 115zM1348 683q164 1 273 -128q83 -99 83 -236q0 -155 -120 -264q-101 -92 -238 -92q-163 0 -271 123q-89 102 -89 237q0 150 109 258q102 101 253 102zM2122 683q164 1 272 -128q84 -100 84 -236
q0 -155 -120 -264q-101 -92 -239 -92q-163 0 -271 123q-89 102 -89 237q0 150 109 258q102 101 254 102z" />
    <glyph glyph-name="guilsinglleft" unicode="&#x2039;" horiz-adv-x="540" 
d="M385 694l73 -114q26 -41 26 -90q0 -61 -42.5 -104t-103.5 -43q-82 0 -129 73l-124 191q-30 46 -30 88q0 43 28 85l134 199q44 66 118 66q60 0 106.5 -45.5t46.5 -105.5q0 -36 -22 -71z" />
    <glyph glyph-name="guilsinglright" unicode="&#x203a;" horiz-adv-x="534" 
d="M152 690l-70 109q-29 45 -29 94q0 62 41.5 105t102.5 43q81 0 136 -83l82 -124q65 -98 65 -146q0 -43 -57 -131l-81 -125q-58 -90 -136 -90t-123 63q-29 41 -29 85q0 40 28 86z" />
    <glyph glyph-name="fraction" unicode="&#x2044;" horiz-adv-x="314" 
d="M-274 228l621 1055q53 90 139 90q58 0 95 -35.5t37 -93.5q0 -54 -39 -120l-598 -1012q-70 -119 -157 -119q-128 0 -128 136q0 48 30 99z" />
    <glyph glyph-name="franc" unicode="&#x20a3;" horiz-adv-x="1682" 
d="M546 524v-217q0 -149 -37 -212q-62 -105 -190 -105q-90 0 -150 58.5t-70 148.5q-3 28 -3 112v787q0 105 27 154q43 77 127 101q51 14 169 14h271q167 0 227 -34q98 -55 98 -172q0 -102 -73 -166q-57 -50 -169 -50h-227v-94h36q100 0 146 -26q75 -42 75 -135
q0 -164 -200 -164h-57zM1263 766q88 101 190 101q85 0 137 -59t52 -145q0 -80 -46 -135q-49 -58 -127 -58q-39 0 -95 37q-23 15 -45 15q-54 0 -54 -112v-242q0 -182 -205 -182q-92 0 -146 44q-59 49 -59 138v480q0 198 206 198q139 0 192 -80z" />
    <glyph glyph-name="trademark" unicode="&#x2122;" horiz-adv-x="1717" 
d="M215 1176h-66q-59 0 -98 30q-43 33 -43 91q0 79 71 110q30 13 145 13h268q76 0 100 -5q54 -10 81 -50q21 -32 21 -67q0 -54 -45 -94q-31 -28 -104 -28h-57v-380q0 -64 -23 -99q-38 -59 -112 -59q-138 0 -138 155v383zM1200 1090l130 266q34 69 121 69q113 0 136 -122
l92 -496q5 -27 5 -44q0 -55 -39.5 -91t-95.5 -36q-114 0 -135 100l-27 131l-47 -124q-41 -107 -141 -107q-95 0 -137 106l-49 125l-19 -109q-21 -122 -136 -122q-62 0 -100.5 40t-38.5 102q0 16 3 32l91 493q23 122 135 122q95 0 136 -87z" />
    <glyph glyph-name="partialdiff" unicode="&#x2202;" horiz-adv-x="1024" 
d="M76 1026l47 323q391 -33 618 -202q270 -200 270 -568q0 -333 -189 -488q-131 -107 -337 -107q-324 0 -438 288q-40 99 -40 204q0 204 161 325q106 80 263 80q133 0 184 -38q-28 59 -74 87q-28 17 -109 42q-158 49 -356 54z" />
    <glyph glyph-name="product" unicode="&#x220f;" horiz-adv-x="1365" 
d="M23 1536h1319v-337h-144v-1373h144v-338h-634v338h112v1373h-276v-1373h110v-338h-631v338h147v1373h-147v337z" />
    <glyph glyph-name="summation" unicode="&#x2211;" horiz-adv-x="1365" 
d="M1318 1536v-571h-380l-48 182h-346l483 -610l-479 -660h360l27 199h401v-588h-1268v447l457 601l-457 550v450h1250z" />
    <glyph glyph-name="minus" unicode="&#x2212;" horiz-adv-x="1184" 
d="M967 479h-746q-84 0 -137 44q-57 48 -57 130q0 83 58 128q53 41 139 41h743q81 0 135.5 -47t54.5 -127q0 -169 -190 -169z" />
    <glyph glyph-name="uni2219" unicode="&#x2219;" horiz-adv-x="497" 
d="M252 950q107 0 181 -82q64 -70 64 -166q0 -111 -82 -185q-71 -64 -167 -64q-110 0 -184 82q-64 71 -64 169q0 107 82 182q70 64 170 64z" />
    <glyph glyph-name="radical" unicode="&#x221a;" horiz-adv-x="1365" 
d="M1365 1693v-349h-299l-289 -1344h-503l-77 453h-197v349h435l30 -157q22 -115 22 -264q0 -11 -1 -38h25q-3 247 71 575l174 775h609z" />
    <glyph glyph-name="infinity" unicode="&#x221e;" horiz-adv-x="1365" 
d="M690 509l-9 -9q-43 -40 -73 -63q-105 -80 -237 -80q-155 0 -255 108q-83 90 -83 229q0 168 119 263q94 75 216 75q143 0 249 -97q45 -42 59 -53q35 32 38 36q124 114 277 114q173 0 271 -122q69 -86 69 -214q0 -161 -107 -255q-95 -84 -229 -84q-151 0 -270 117z" />
    <glyph glyph-name="integral" unicode="&#x222b;" horiz-adv-x="1024" 
d="M-2 -492l66 402q57 -21 94 -21q89 0 116 71q7 18 9 52q1 31 1 202v642q0 185 8 253q16 131 73 218q139 210 446 210q84 0 216 -21l-66 -402q-59 21 -97 21q-82 0 -112 -71q-11 -26 -11 -110l-1 -973q-2 -53 -12 -107q-36 -194 -179 -295q-133 -93 -336 -93q-87 0 -165 15
q-30 6 -50 7z" />
    <glyph glyph-name="approxequal" unicode="&#x2248;" horiz-adv-x="1184" 
d="M304 686l-211 149q43 115 86 179q99 148 245 148q51 0 225 -59q106 -36 127 -36q58 0 105 71l211 -149q-69 -173 -141 -247q-81 -83 -189 -83q-51 0 -224 62q-101 36 -132 36q-52 0 -102 -71zM304 153l-211 150q44 114 86 178q98 148 245 148q51 0 225 -59
q106 -36 127 -36q59 0 105 71l211 -149q-69 -173 -141 -247q-81 -83 -189 -83q-48 0 -224 61q-107 37 -133 37q-52 0 -101 -71z" />
    <glyph glyph-name="approxequal" unicode="&#x22f2;" horiz-adv-x="1184" 
d="M304 686l-211 149q43 115 86 179q99 148 245 148q51 0 225 -59q106 -36 127 -36q58 0 105 71l211 -149q-69 -173 -141 -247q-81 -83 -189 -83q-51 0 -224 62q-101 36 -132 36q-52 0 -102 -71zM304 153l-211 150q44 114 86 178q98 148 245 148q51 0 225 -59
q106 -36 127 -36q59 0 105 71l211 -149q-69 -173 -141 -247q-81 -83 -189 -83q-48 0 -224 61q-107 37 -133 37q-52 0 -101 -71z" />
    <glyph glyph-name="notequal" unicode="&#x2260;" horiz-adv-x="1184" 
d="M585 1080l154 279l270 -157l-75 -122h102v-373h-252l-71 -117h322v-373h-457l-123 -212l-270 157l43 55h-79v373h214l72 117h-284v373h434z" />
    <glyph glyph-name="lessequal" unicode="&#x2264;" horiz-adv-x="1184" 
d="M1035 1417v-417l-400 -82l400 -80v-417l-887 313v372zM1035 371v-392h-887v392h887z" />
    <glyph glyph-name="greaterequal" unicode="&#x2265;" horiz-adv-x="1184" 
d="M148 421v417l400 80l-400 82v417l887 -311v-372zM148 -21v392h887v-392h-887z" />
    <glyph glyph-name="lozenge" unicode="&#x25ca;" horiz-adv-x="2235" 
d="M2031 1814q-43 -1 -72.5 29t-29.5 71q0 42 29.5 71.5t72.5 28.5q40 -1 68.5 -29.5t28.5 -70.5q0 -41 -28.5 -70t-68.5 -30zM2029 1505q0 -256 -205 -358q-85 -43 -205 -52q-182 0 -196 -195q0 -256 -204 -358q-85 -43 -205 -51q-119 8 -205 51q-204 102 -204 358
q-14 195 -196 195q-256 0 -358 205q-42 85 -51 205q0 256 204 358q85 43 205 51q256 0 358 -204q43 -85 52 -205q0 -182 195 -196q196 14 196 196q8 120 51 205q102 204 358 204t358 -204q43 -85 52 -205zM1413 77h-60v181h-75v46q79 -2 87 59h48v-286zM1290 187
q0 -116 -114 -116q-113 0 -113 116t113 116q114 0 114 -116zM824 304h-60v59h60v-59zM1055 185q0 -114 -96 -114q-44 0 -66 33h-1v-104h-60v297h57v-28h1q21 34 65 34q100 0 100 -118zM824 77h-60v220h60v-220zM756 77q-13 -2 -35 -2q-69 0 -69 52v130h-37v40h37v66h60v-66
h44v-40h-44v-109q0 -17 6 -21.5t20 -4.5q9 0 18 2v-47zM2074 1859l-26 49q21 8 21 30q0 31 -33 31h-44v-110h17v47h22v-1l23 -46h20zM1815 1505q-14 196 -196 196t-196 -196q0 -256 -204 -358q-85 -43 -205 -52q-119 9 -205 52q-204 102 -204 358q-14 196 -196 196
q-196 -14 -196 -196q14 -196 196 -196q256 0 358 -204q43 -85 52 -205q0 -182 195 -196q196 14 196 196q8 120 51 205q102 204 358 204q196 14 196 196zM1229 187q0 70 -53 70q-53 -37 -53 -70q0 -70 53 -70t53 70zM995 187q0 70 -53 70q-52 -37 -52 -70q0 -70 52 -70v0
q53 0 53 70zM2053 1938q0 -17 -18 -17h-26v33h26q18 0 18 -16z" />
    <glyph glyph-name="apple" unicode="&#xf000;" horiz-adv-x="1365" 
d="M984 1416v-21q0 -161 -127 -265q-84 -69 -177 -69q3 144 83 240.5t221 114.5zM1277 935q-64 -49 -98 -92q-67 -84 -67 -192q0 -218 203 -306q-59 -144 -133 -247q-109 -152 -214 -152q-41 0 -165 52q-17 7 -78 7q-71 0 -182 -45q-42 -17 -79 -17q-114 0 -226 167
q-172 257 -172 519q0 186 97 311q106 137 286 137q65 0 158 -36q67 -26 97 -26q34 0 89 21q118 45 188 45q189 0 296 -146z" />
    <glyph glyph-name="fi" unicode="&#xf001;" horiz-adv-x="1684" 
d="M546 524v-217q0 -149 -37 -212q-62 -105 -190 -105q-90 0 -150 58.5t-70 148.5q-3 28 -3 112v787q0 103 28 154q43 78 126 101q49 14 169 14h271q168 0 227 -34q98 -56 98 -172q0 -101 -73 -166q-57 -50 -169 -50h-227v-94h139q99 0 145 -26q75 -42 75 -135
q0 -164 -200 -164h-159zM1589 1096v-847q0 -110 -57 -181q-61 -78 -169 -78q-99 0 -168 73q-57 60 -57 186v847q0 142 57 206q65 73 168 73q102 0 167 -72q59 -66 59 -207z" />
    <glyph glyph-name="fl" unicode="&#xf002;" horiz-adv-x="2036" 
d="M546 524v-217q0 -149 -37 -212q-62 -105 -190 -105q-90 0 -150 58.5t-70 148.5q-3 28 -3 112v787q0 103 28 154q43 78 126 101q49 14 169 14h271q168 0 227 -34q98 -56 98 -172q0 -101 -73 -166q-57 -50 -169 -50h-227v-94h139q99 0 145 -26q75 -42 75 -135
q0 -164 -200 -164h-159zM1589 422h221q102 0 161 -42q86 -62 86 -168q0 -96 -70 -160q-56 -52 -167 -52h-429q-127 0 -192 71q-47 52 -58 133q-3 26 -3 149v770q0 109 57 178q61 74 168 74q112 0 175 -82q51 -66 51 -225v-646z" />
    <glyph glyph-name="NULL" horiz-adv-x="0" 
 />
    <glyph glyph-name="glyph233" 
 />
    <glyph glyph-name="glyph234" 
 />
    <glyph glyph-name="glyph226" 
 />
    <glyph glyph-name="glyph227" 
 />
    <glyph glyph-name="glyph228" 
 />
    <glyph glyph-name="glyph229" 
 />
    <glyph glyph-name="glyph235" 
 />
    <glyph glyph-name="glyph11" 
 />
    <glyph glyph-name="glyph236" 
 />
    <glyph glyph-name="glyph237" 
 />
    <glyph glyph-name="glyph14" 
 />
    <glyph glyph-name="glyph230" 
 />
    <glyph glyph-name="glyph231" 
 />
    <glyph glyph-name="glyph242" 
 />
    <glyph glyph-name="glyph243" 
 />
    <glyph glyph-name="glyph239" 
 />
    <glyph glyph-name="glyph244" 
 />
    <glyph glyph-name="glyph241" 
 />
    <glyph glyph-name="glyph240" 
 />
    <glyph glyph-name="glyph232" 
 />
    <glyph glyph-name="glyph238" 
 />
    <glyph glyph-name="glyph172" horiz-adv-x="1184" 
 />
    <glyph glyph-name="glyph245" 
 />
    <glyph glyph-name="glyph246" 
 />
    <glyph glyph-name="glyph247" 
 />
    <glyph glyph-name="glyph248" 
 />
    <glyph glyph-name="glyph249" 
 />
    <glyph glyph-name="glyph250" 
 />
    <glyph glyph-name="glyph251" 
 />
    <glyph glyph-name="glyph252" 
 />
    <glyph glyph-name="glyph253" 
 />
    <glyph glyph-name="glyph254" 
 />
    <glyph glyph-name="glyph255" 
 />
    <glyph glyph-name="glyph256" 
 />
    <glyph glyph-name="glyph257" 
 />
    <glyph glyph-name="glyph294" horiz-adv-x="1024" 
d="M296 1842q76 0 131 -60q47 -52 47 -121q0 -75 -53 -128t-128 -53t-128 53.5t-53 128.5q0 76 54 128t130 52zM733 1847q74 0 126.5 -54t52.5 -128q0 -76 -53 -129.5t-129 -53.5q-77 0 -130 53.5t-53 130.5q0 78 61 134q52 47 125 47z" />
    <glyph glyph-name="glyph295" 
 />
    </font>
</defs>
</svg>
